Скачать через торрент Рик и Морти Rick and Morty Фильм бесплатно в хорошем качестве torrent

Скачивайте на UnionPeer.org фильмы через торрент без регистрации. Новинки кино в хорошем качестве через торрент. На UnionPeer.org можно скачать через торрент фильмы 2014 и 2015 годов. Самые новые фильмы.

Скачать торрент Рик и Морти Rick and Morty бесплатно через .torrent фильм мультфильм сериал

Если у вас наблюдаются проблемы со скриншотами, переходом по ссылками, скачиванием торрентов - проблемы в блокировщике рекламы AdBlock. #хорошегоДня!


Статистика раздачи
Размер:  975 MB   |    Зарегистрирован:  2 месяца 20 дней   |    .torrent скачан:  41 раз   |   
Раздают:  1  
   
Загрузка...
 
Автор Сообщение

Galfimbul

avatar Galfimbul


Рик и Морти / Rick and Morty
Год выпуска: 2017
Страна: США
Жанр: Мультфильм, комедия, фантастика
Продолжительность: ~ 00:22:00
Перевод: Профессиональный (одноголосый закадровый) Сыендук (ненормативная лексика)Режиссёр: Пит Мишелс, Брайан Ньютон, Джон Райс
Роли озвучивали: Джастин Ройланд, Крис Парнелл, Спенсер Грэммер, Сара Чок, Кари Уолгрен, Райан Ридли, Том Кенни, Морис ЛаМарш, Фил Хендри, Брэндон Джонсон и др.Описание: Рик и Морти - американский, научно-фантастический комедийно-приключенческий мультсериал. В центре внимания - неунывающая парочка, состоящая из внука-школьника и дедушки-ученого. Вместе они совершат много увлекательных путешествий и докажут существование невероятных явлений.Релизер: АКТЕР aka CEBEPu2D
За звук 5,1: спасибо Plazik-у
Перевод Без цензурыВсе раздачи сериала Качество: WEB-DL 1080p
Формат: MKV
Видео: H.264, 1920x1080, 23.976 fps, ~5000 kbps, ~0.100 bit/pixel
Аудио 1 Rus: AC3, 48 kHz, 6 ch, 384 kbps |Сыендук (ненормативная лексика)|
Аудио 2 Eng: AC3, 48 kHz, 6 ch, 384 kbps |Original|
Субтитры: русские, английские
Полное имя : E:\Loading\Rick.and.Morty.S03E01.The.Rickshank.Rickdemption.1080p.WEB-DL.by.AKTEP.mkv
Формат : Matroska
Версия формата : Version 4 / Version 2
Размер файла : 975 Мбайт
Продолжительность : 23 м.
Общий поток : 5834 Кбит/сек
Дата кодирования : UTC 2017-07-27 13:39:30
Программа кодирования : mkvmerge v6.2.0 ('Promised Land') built on Apr 28 2013 12:22:01
Библиотека кодирования : libebml v1.3.0 + libmatroska v1.4.0

Видео
Идентификатор : 1
Формат : AVC
Формат/Информация : Advanced Video Codec
Профиль формата : High@L4.0
Параметр CABAC формата : Да
Параметр ReFrames формата : 4 кадра
Идентификатор кодека : V_MPEG4/ISO/AVC
Продолжительность : 23 м.
Битрейт : 4950 Кбит/сек
Ширина : 1920 пикселей
Высота : 1080 пикселей
Соотношение сторон : 16:9
Режим частоты кадров : Постоянный
Частота кадров : 23,976 кадра/сек
Цветовое пространство : YUV
Субдискретизация насыщенности : 4:2:0
Битовая глубина : 8 бит
Тип развёртки : Прогрессивная
Бит/(Пиксели*Кадры) : 0.100
Размер потока : 828 Мбайт (85%)
Язык : English
Default : Да
Forced : Нет
Основные цвета : BT.709
Характеристики трансфера : BT.709
Коэффициенты матрицы : BT.709

Аудио #1
Идентификатор : 2
Формат : AC-3
Формат/Информация : Audio Coding 3
Расширение режима : CM (complete main)
Параметр Endianness формата : Big
Идентификатор кодека : A_AC3
Продолжительность : 23 м.
Вид битрейта : Постоянный
Битрейт : 384 Кбит/сек
Каналы : 6 каналов
Расположение каналов : Front: L C R, Side: L R, LFE
Частота : 48,0 КГц
Битовая глубина : 16 бит
Метод сжатия : С потерями
Размер потока : 64,2 Мбайт (7%)
Язык : Russian
Default : Да
Forced : Нет

Аудио #2
Идентификатор : 3
Формат : AC-3
Формат/Информация : Audio Coding 3
Расширение режима : CM (complete main)
Параметр Endianness формата : Big
Идентификатор кодека : A_AC3
Продолжительность : 23 м.
Вид битрейта : Постоянный
Битрейт : 384 Кбит/сек
Каналы : 6 каналов
Расположение каналов : Front: L C R, Side: L R, LFE
Частота : 48,0 КГц
Битовая глубина : 16 бит
Метод сжатия : С потерями
Размер потока : 64,2 Мбайт (7%)
Язык : English
Default : Нет
Forced : Нет

Текст #1
Идентификатор : 4
Формат : UTF-8
Идентификатор кодека : S_TEXT/UTF8
Идентификатор кодека/Информация : UTF-8 Plain Text
Язык : Russian
Default : Нет
Forced : Нет

Текст #2
Идентификатор : 5
Формат : UTF-8
Идентификатор кодека : S_TEXT/UTF8
Идентификатор кодека/Информация : UTF-8 Plain Text
Язык : English
Default : Нет
Forced : Нет
[b] Archer 1 сезон 1080р Archer 2 сезон 1080р Archer 3 сезон 1080р

Трекер:  [ 27-Июл-2017 17:24 ]

  

Скачать .torrent

Размер .torrent файла 1 KB


Размер: 975 MB
Хэш (hash) релиза: 0ee6c0113b78089ef18b82d43a64a55dd7ebeef6
Подписка на обновления:

Еще никто не оставлял запись к записи скачать торрент Рик и Морти Rick and Morty . Будь первым!

!Обратная связь