Скачать через торрент Стар против Сил Зла Star vs the Forces of Evil Фильм бесплатно в хорошем качестве torrent

Скачивайте на UnionPeer.org фильмы через торрент без регистрации. Новинки кино в хорошем качестве через торрент. На UnionPeer.org можно скачать через торрент фильмы 2014 и 2015 годов. Самые новые фильмы.

Скачать торрент Стар против Сил Зла Star vs the Forces of Evil бесплатно через .torrent фильм мультфильм сериал

Если у вас наблюдаются проблемы со скриншотами, переходом по ссылками, скачиванием торрентов - проблемы в блокировщике рекламы AdBlock. #хорошегоДня!


Статистика раздачи
Размер:  3.41 GB   |    Зарегистрирован:  2 месяца 24 дня   |    .torrent скачан:  52 раза   |   
Раздают:  1  
   
Загрузка...
 
Автор Сообщение

Galfimbul

avatar Galfimbul


Стар против Сил Зла / Star vs the Forces of Evil
Страна: США
Жанр: Комедия, семейный, приключения
Продолжительность: 00:22:00
Год выпуска: 2017
Перевод: Любительский (двухголосый закадровый) [Cactus Team]
Русские субтитры: нетРежиссёр: Дэвид Вассон / David Wasson
Описание: Анимационная приключенческая комедия, повествующая о весёлой волшебной принцессе по имени Стар Баттерфлай, которая после нескольких стычек с монстрами была послана своими родителями на Землю для проживания с семьёй Диазов. В паре с их сыном по имени Марко, Стар сражается со злодеями из разных измерений, стараясь защитить свою волшебную палочку, которой она ещё только учится пользоваться.Ссылка на предыдущие и альтернативные раздачи: ...Star%20vs.%20The%20Forces%20of%20Evil
Семпл: http://sendfile.su/1351472Качество: WEB-DL 1080p
Формат: MKV
Видео: MPEG-4 AVC, 1920x1080, 23.976 fps, ~ 5500 kbps
Аудио 1 (рус.) : AC-3, 48кгц, 2.0, 192кбит
Аудио 2 (англ.) : AAC, 48кгц, 2.0, 160кбит
Субтитры: английские, отключаемые
ОбщееУникальный идентификатор : 232404524581690144616583262884741523218 (0xAED77BBA3939A1B59ADBBA925C502712)Полное имя : D:\Star vs the Forces of Evil - 3 season [Cactus Team]\S03E01 Return to Mewni. Moon the Undaunted .mkvФормат : MatroskaВерсия формата : Version 4 / Version 2Размер файла : 876 МбайтПродолжительность : 22 м. 17 с.Общий поток : 5494 Кбит/секДата кодирования : UTC 2017-07-27 13:02:08Программа кодирования : mkvmerge v7.3.0 ('Nouages') 32bit built on Oct 22 2014 18:44:01Библиотека кодирования : libebml v1.3.0 + libmatroska v1.4.1Обложка : YesAttachments : small_cover.jpg / cover.jpg / cover_land.jpg / small_cover_land.jpg

ВидеоИдентификатор : 1Формат : AVCФормат/Информация : Advanced Video CodecПрофиль формата : High@L4Параметр CABAC формата : ДаПараметр ReFrames формата : 4 кадраИдентификатор кодека : V_MPEG4/ISO/AVCПродолжительность : 22 м. 17 с.Битрейт : 5147 Кбит/секШирина : 1920 пикселейВысота : 1080 пикселейСоотношение сторон : 16:9Режим частоты кадров : ПостоянныйЧастота кадров : 23,976 (23976/1000) кадра/секЦветовое пространство : YUVСубдискретизация насыщенности : 4:2:0Битовая глубина : 8 битТип развёртки : ПрогрессивнаяБит/(Пиксели*Кадры) : 0.104Размер потока : 821 Мбайт (94%)Язык : EnglishDefault : ДаForced : НетЦветовой диапазон : LimitedОсновные цвета : BT.709Характеристики трансфера : BT.709Коэффициенты матрицы : BT.709

Аудио #1Идентификатор : 2Формат : AC-3Формат/Информация : Audio Coding 3Параметр Endianness формата : BigИдентификатор кодека : A_AC3Продолжительность : 22 м. 17 с.Вид битрейта : ПостоянныйБитрейт : 192 Кбит/секКаналы : 2 каналаРасположение каналов : Front: L RЧастота : 48,0 КГцЧастота кадров : 31,250 кадров/сек (1536 spf)Битовая глубина : 16 битМетод сжатия : С потерямиЗадержка видео : -24 мс.Размер потока : 30,6 Мбайт (3%)Заголовок : DVO - Cactus TeamЯзык : RussianServiceKind/String : Complete MainDefault : ДаForced : Нет

Аудио #2Идентификатор : 3Формат : AACФормат/Информация : Advanced Audio CodecПрофиль формата : LCИдентификатор кодека : A_AACПродолжительность : 22 м. 17 с.Битрейт : 153 Кбит/секКаналы : 2 каналаРасположение каналов : Front: L RЧастота : 48,0 КГцЧастота кадров : 46,875 кадров/сек (1024 spf)Метод сжатия : С потерямиЗадержка видео : -21 мс.Размер потока : 24,3 Мбайт (3%)Язык : EnglishDefault : НетForced : Нет

ТекстИдентификатор : 4Формат : UTF-8Идентификатор кодека : S_TEXT/UTF8Идентификатор кодека/Информация : UTF-8 Plain TextПродолжительность : 22 м. 13 с.Битрейт : 78 бит/секElementCount : 465Размер потока : 12,8 Кбайт (0%)Язык : EnglishDefault : НетForced : Нет
Перевод:
illuminor, Irma TH
Тайминг:
-Турапин!
Озвучка:
-Турапин! - Все мужские роли
Ivaniska - Все женские роли
01 - Return to Mewni / Moon the Undaunted
02 - Book Be Gone / Marco and The King
03 - Puddle Defender / King Ludo
04 - Toffee


Трекер:  [ 27-Июл-2017 16:54 ]

  

Скачать .torrent

Размер .torrent файла 17 KB


Размер: 3.41 GB
Хэш (hash) релиза: e326065995000ad2574e21f6586af69d18a5b758
Подписка на обновления:

Еще никто не оставлял запись к записи скачать торрент Стар против Сил Зла Star vs the Forces of Evil . Будь первым!

!Обратная связь