Скачать через торрент Джефф Росс Стебёт Копов Jeff Ross Roasts Cops Фильм бесплатно в хорошем качестве torrent

Скачивайте на UnionPeer.org фильмы через торрент без регистрации. Новинки кино в хорошем качестве через торрент. На UnionPeer.org можно скачать через торрент фильмы 2014 и 2015 годов. Самые новые фильмы.

Скачать торрент Джефф Росс Стебёт Копов Jeff Ross Roasts Cops бесплатно через .torrent фильм мультфильм сериал

Если у вас наблюдаются проблемы со скриншотами, переходом по ссылками, скачиванием торрентов - проблемы в блокировщике рекламы AdBlock. #хорошегоДня!


Статистика раздачи
Размер:  1.59 GB   |    Зарегистрирован:  2 месяца 21 день   |    .torrent скачан:  14 раз   |   
Раздают:  1  
   
Загрузка...
 
Автор Сообщение

Galfimbul

avatar Galfimbul


Джефф Росс Стебёт Копов / Jeff Ross Roasts Cops

Год выпуска: 10.09.2016
Страна: США
Жанр: Stand-up comedy, Roast comedy
Продолжительность: 00:49:15
Русские субтитры: Максим Яценко
Оригинальная аудиодорожка: английский
Телеканал: Comedy Central

Описание: Генералиссимус прожарок Джефф Росс побеседует с активистами движения "Чёрные Жизни Важны", совершит очень познавательное совместное патрулирование и прожарит членов полицейского отдела в Бостоне.

Доп. информация: Прошу поддержать переводчика добрым словом. Товарищ успешно работает над Прожарками от Джеффа Росса и многими другими проектами.

Ненормативная лексика присутствует.

качество: HDRip
формат: MKV
Видео: MPEG4 Video (H264) 1280x720 23.976fps 4224 kb/s
Аудио: Dolby AC3 48000Hz stereo 384kbps 2 channels
Формат субтитров: softsub (ASS)
Джефф Росс Стебёт Копов.mkvFormat : MatroskaFormat version : Version 4 / Version 2File size : 1.59 GiBDuration : 49 min 15 sOverall bit rate : 4 610 kb/sEncoded date : UTC 2016-09-11 09:11:48Writing application : mkvmerge v9.3.1 ('Mask Machine') 64bitWriting library : libebml v1.3.4 + libmatroska v1.4.5

VideoID : 1Format : AVCFormat/Info : Advanced Video CodecFormat profile : High@L4.1Format settings, CABAC : YesFormat settings, ReFrames : 5 framesCodec ID : V_MPEG4/ISO/AVCDuration : 49 min 15 sBit rate : 4 224 kb/sWidth : 1 280 pixelsHeight : 720 pixelsDisplay aspect ratio : 16:9Frame rate mode : ConstantFrame rate : 23.976 (24000/1001) FPSColor space : YUVChroma subsampling : 4:2:0Bit depth : 8 bitsScan type : ProgressiveBits/(Pixel*Frame) : 0.191Stream size : 1.45 GiB (92%)Writing library : x264 core 148 r2705 3f5ed56Encoding settings : cabac=1 / ref=5 / deblock=1:0:0 / analyse=0x3:0x113 / me=umh / subme=8 / psy=1 / psy_rd=1.00:0.00 / mixed_ref=1 / me_range=16 / chroma_me=1 / trellis=1 / 8x8dct=1 / cqm=0 / deadzone=21,11 / fast_pskip=1 / chroma_qp_offset=-2 / threads=12 / lookahead_threads=2 / sliced_threads=0 / nr=0 / decimate=1 / interlaced=0 / bluray_compat=0 / constrained_intra=0 / bframes=3 / b_pyramid=2 / b_adapt=2 / b_bias=0 / direct=3 / weightb=1 / open_gop=0 / weightp=2 / keyint=250 / keyint_min=23 / scenecut=40 / intra_refresh=0 / rc_lookahead=50 / rc=crf / mbtree=1 / crf=18.0 / qcomp=0.60 / qpmin=0 / qpmax=69 / qpstep=4 / ip_ratio=1.40 / aq=1:1.00Default : YesForced : No

AudioID : 2Format : AC-3Format/Info : Audio Coding 3Format settings, Endianness : BigCodec ID : A_AC3Duration : 49 min 15 sBit rate mode : ConstantBit rate : 384 kb/sChannel(s) : 2 channelsChannel positions : Front: L RSampling rate : 48.0 kHzFrame rate : 31.250 FPS (1536 spf)Bit depth : 16 bitsCompression mode : LossyStream size : 135 MiB (8%)Language : EnglishService kind : Complete MainDefault : YesForced : No

TextID : 3Format : UTF-8Codec ID : S_TEXT/UTF8Codec ID/Info : UTF-8 Plain TextDuration : 48 min 51 sBit rate : 152 b/sCount of elements : 1341Stream size : 54.5 KiB (0%)Language : EnglishDefault : NoForced : No


Трекер:  [ 27-Июл-2017 11:12 ]

  

Скачать .torrent

Размер .torrent файла 16 KB


Размер: 1.59 GB
Хэш (hash) релиза: ef1544ce95c0c7897ecb1a6f38ee4f1f50c9e4a1
Подписка на обновления:

Еще никто не оставлял запись к записи скачать торрент Джефф Росс Стебёт Копов Jeff Ross Roasts Cops . Будь первым!

!Обратная связь