Скачать через торрент Холодное танго Фильм бесплатно в хорошем качестве torrent

Скачивайте на UnionPeer.org фильмы через торрент без регистрации. Новинки кино в хорошем качестве через торрент. На UnionPeer.org можно скачать через торрент фильмы 2014 и 2015 годов. Самые новые фильмы.

Скачать торрент Холодное танго бесплатно через .torrent фильм мультфильм сериал

Если у вас наблюдаются проблемы со скриншотами, переходом по ссылками, скачиванием торрентов - проблемы в блокировщике рекламы AdBlock. #хорошегоДня!


Статистика раздачи
Размер:  1.46 GB   |    Зарегистрирован:  3 месяца 27 дней   |    .torrent скачан:  151 раз   |   
Раздают:  1  
   
Загрузка...
 
Автор Сообщение

Galfimbul

avatar Galfimbul


Холодное танго
Жанр: Мелодрама, военный, драма, история
Год выпуска: 2017
Продолжительность: 01:42:23Режиссёр: Павел ЧухрайВ ролях: Риналь Мухаметов, Юлия Пересильд, Елисей Никандров, Ася Громова, Сергей Гармаш, Дайнюс Казлаускас, Моника Санторо, Анна Котова-Дерябина, Мария Малиновская, Андрюс Бялобжескис, Алексей Ингелевич, Александр Резалин, Карина КаграманянОписание: Он чудом избежал смерти, чтобы вернуться в дом, где родился. В дом, в котором теперь живет любовь всей его жизни. Но надежда на счастье оборачивается страшным открытием. Его возлюбленная — дочь его врага.

Качество видео: WEB-DLRip
Формат видео: AVI

Видео: 704x384 (1.85:1), 25.000 fps, XviD build 73, 1649 Kbps, 0.24 Bits/Pixel
Аудио: 48 kHz, AC3 Dolby Digital, 3/2 (L,C,R,l,r) + LFE ch, 384 Kbps
General
Complete name : Downloads\Kholodnoe.tango.2017.WEB-DLRip
Format : AVI
Format/Info : Audio Video Interleave
File size : 1.46 GiB
Duration : 1h 42mn
Overall bit rate : 2 043 Kbps
Writing application : VirtualDubMod 1.5.10.2 (build 2540/release)
Writing library : VirtualDubMod build 2540/release
Video #0
ID : 0
Format : MPEG-4 Visual
Format profile : Advanced Simple@L5
Format settings, BVOP : 1
Format settings, QPel : No
Format settings, GMC : No warppoints
Format settings, Matrix : Custom
Codec ID : XVID
Codec ID/Hint : XviD
Duration : 1h 42mn
Bit rate : 1 649 Kbps
Width : 704 pixels
Height : 384 pixels
Display aspect ratio : 1.85:1
Frame rate : 25.000 fps
Color space : YUV
Chroma subsampling : 4:2:0
Bit depth : 8 bits
Scan type : Progressive
Compression mode : Lossy
Bits/(Pixel*Frame) : 0.244
Stream size : 1.18 GiB (81%)
Writing library : XviD 73
Audio #1
ID : 1
Format : AC-3
Format/Info : Audio Coding 3
Mode extension : CM (complete main)
Format settings, Endianness : Big
Codec ID : 2000
Duration : 1h 42mn
Bit rate mode : Constant
Bit rate : 384 Kbps
Channel(s) : 6 channels
Channel positions : Front: L C R, Side: L R, LFE
Sampling rate : 48.0 KHz
Bit depth : 16 bits
Compression mode : Lossy
Stream size : 281 MiB (19%)
Alignment : Split accross interleaves
Interleave, duration : 40 ms (1.00 video frame)
Interleave, preload duration : 500 ms


Трекер:  [ 27-Июл-2017 02:24 ]

  

Скачать .torrent

Размер .torrent файла 15 KB


Размер: 1.46 GB
Хэш (hash) релиза: 2e87f1628dfe448b1b3a2ba0b07ddcbe8f4de688
Подписка на обновления:

Еще никто не оставлял запись к записи скачать торрент Холодное танго . Будь первым!

!Обратная связь