Скачать через торрент музыку Планета обезьян: Война War for the Planet of the Apes бесплатно без регистрации torrent

Если у вас наблюдаются проблемы со скриншотами, переходом по ссылками, скачиванием торрентов - проблемы в блокировщике рекламы AdBlock. #хорошегоДня!


Статистика раздачи
Размер:  382 MB   |    Зарегистрирован:  2 месяца 25 дней   |    .torrent скачан:  30 раз   |   
Раздают:  1  
   
Загрузка...
 
Автор Сообщение

Galfimbul

avatar Galfimbul


Планета обезьян: Война / War for the Planet of the Apes

Название альбома: War for the Planet of the Apes
Жанр: Score
Композитор: Michael Giacchino
Год выпуска диска: 2017
Год выпуска фильма: 2017
Производитель диска: EU
Издатель (лейбл): Sony Classical
Номер по каталогу: 88985455642
Аудиокодек: FLAC
Тип рипа: tracks+.cue
Битрейт аудио: lossless
Продолжительность: 01:40:25
Источник: Спасибо, Filex
Наличие сканов в содержимом раздачи: да
01. Michael Giacchino - Apes' Past Is Prologue (10:55)
02. Michael Giacchino - Assault of the Earth (5:31)
03. Michael Giacchino - Exodus Wounds (4:24)
04. Michael Giacchino - The Posse Polonaise (1:41)
05. Michael Giacchino - The Bad Ape Bagatelle (1:15)
06. Michael Giacchino - Don't Luca Now (3:55)
07. Michael Giacchino - Koba Dependent (2:56)
08. Michael Giacchino - The Ecstasy of the Bold (1:59)
09. Michael Giacchino - Apes Together Strong (7:14)
10. Michael Giacchino - A Tide in the Affairs of Apes (5:33)
11. Michael Giacchino - Planet of the Escapes (2:44)
12. Michael Giacchino - The Hating Game (2:06)
13. Michael Giacchino - A Man Named Suicide (5:34)
14. Michael Giacchino - More Red Than Alive (2:43)
15. Michael Giacchino - Migration (2:05)
16. Michael Giacchino - Paradise Found (5:37)
17. Michael Giacchino - End Credits (9:31)
Exact Audio Copy V1.3 from 2. September 2016

EAC extraction logfile from 25. July 2017, 11:55

Michael Giacchino / War for the Planet of the Apes

Used drive : PLEXTOR CD-R PX-230A Adapter: 1 ID: 0

Read mode : SecureUtilize accurate stream : YesDefeat audio cache : YesMake use of C2 pointers : No

Read offset correction : 738Overread into Lead-In and Lead-Out : NoFill up missing offset samples with silence : YesDelete leading and trailing silent blocks : NoNull samples used in CRC calculations : YesUsed interface : Native Win32 interface for Win NT & 2000Gap handling : Appended to previous track

Used output format : User Defined EncoderSelected bitrate : 1024 kBit/sQuality : HighAdd ID3 tag : NoCommand line compressor : C:\Program Files\Exact Audio Copy\Flac\flac.exeAdditional command line options : -6 -V -T "ARTIST=%artist%" -T "TITLE=%title%" -T "ALBUM=%albumtitle%" -T "DATE=%year%" -T "TRACKNUMBER=%tracknr%" -T "GENRE=%genre%" -T "COMMENT=%comment%" -T "ALBUMARTIST=%albuminterpret%" -T "COMPOSER=%composer%" -T "DISCNUMBER=%cdnumber%" -T "TOTALDISCS=%totalcds%" -T "TOTALTRACKS=%numtracks%" %source% -o %dest%

TOC of the extracted CD

Track | Start | Length | Start sector | End sector --------------------------------------------------------- 1 | 0:00.00 | 10:54.73 | 0 | 49122 2 | 10:54.73 | 5:30.48 | 49123 | 73920 3 | 16:25.46 | 4:24.34 | 73921 | 93754 4 | 20:50.05 | 1:41.02 | 93755 | 101331 5 | 22:31.07 | 1:15.20 | 101332 | 106976 6 | 23:46.27 | 3:55.16 | 106977 | 124617 7 | 27:41.43 | 2:56.28 | 124618 | 137845 8 | 30:37.71 | 1:58.58 | 137846 | 146753 9 | 32:36.54 | 7:13.62 | 146754 | 179290 10 | 39:50.41 | 5:32.49 | 179291 | 204239 11 | 45:23.15 | 2:44.27 | 204240 | 216566 12 | 48:07.42 | 2:06.25 | 216567 | 226041 13 | 50:13.67 | 5:33.48 | 226042 | 251064 14 | 55:47.40 | 2:42.41 | 251065 | 263255 15 | 58:30.06 | 2:05.01 | 263256 | 272631 16 | 60:35.07 | 5:37.09 | 272632 | 297915 17 | 66:12.16 | 9:30.54 | 297916 | 340719

Track 1

Filename C:\Ripped by Filex\01 - Apes' Past Is Prologue.wav

Pre-gap length 0:00:02.00

Peak level 94.4 % Extraction speed 6.4 X Track quality 100.0 % Test CRC E8DC1856 Copy CRC E8DC1856 Track not present in AccurateRip database Copy OK

Track 2

Filename C:\Ripped by Filex\02 - Assault of the Earth.wav

Pre-gap length 0:00:01.37

Peak level 94.3 % Extraction speed 6.6 X Track quality 99.9 % Test CRC 80826805 Copy CRC 80826805 Track not present in AccurateRip database Copy OK

Track 3

Filename C:\Ripped by Filex\03 - Exodus Wounds.wav

Pre-gap length 0:00:01.37

Peak level 95.2 % Extraction speed 7.5 X Track quality 100.0 % Test CRC 6FE43A42 Copy CRC 6FE43A42 Track not present in AccurateRip database Copy OK

Track 4

Filename C:\Ripped by Filex\04 - The Posse Polonaise.wav

Pre-gap length 0:00:01.37

Peak level 94.2 % Extraction speed 7.0 X Track quality 100.0 % Test CRC 7BD26A73 Copy CRC 7BD26A73 Track not present in AccurateRip database Copy OK

Track 5

Filename C:\Ripped by Filex\05 - The Bad Ape Bagatelle.wav

Pre-gap length 0:00:01.19

Peak level 94.4 % Extraction speed 6.5 X Track quality 100.0 % Test CRC D9B84F4A Copy CRC D9B84F4A Track not present in AccurateRip database Copy OK

Track 6

Filename C:\Ripped by Filex\06 - Don't Luca Now.wav

Pre-gap length 0:00:01.37

Peak level 95.9 % Extraction speed 8.0 X Track quality 100.0 % Test CRC 981CB35E Copy CRC 981CB35E Track not present in AccurateRip database Copy OK

Track 7

Filename C:\Ripped by Filex\07 - Koba Dependent.wav

Pre-gap length 0:00:01.37

Peak level 72.1 % Extraction speed 8.1 X Track quality 100.0 % Test CRC 5E807152 Copy CRC 5E807152 Track not present in AccurateRip database Copy OK

Track 8

Filename C:\Ripped by Filex\08 - The Ecstasy of the Bold.wav

Pre-gap length 0:00:01.37

Peak level 94.4 % Extraction speed 7.8 X Track quality 100.0 % Test CRC 2A73E46C Copy CRC 2A73E46C Track not present in AccurateRip database Copy OK

Track 9

Filename C:\Ripped by Filex\09 - Apes Together Strong.wav

Pre-gap length 0:00:01.37

Peak level 96.3 % Extraction speed 8.8 X Track quality 100.0 % Test CRC A0DF5FBF Copy CRC A0DF5FBF Track not present in AccurateRip database Copy OK

Track 10

Filename C:\Ripped by Filex\10 - A Tide in the Affairs of Apes.wav

Pre-gap length 0:00:01.37

Peak level 96.0 % Extraction speed 8.3 X Track quality 99.9 % Test CRC 7DA36945 Copy CRC 7DA36945 Track not present in AccurateRip database Copy OK

Track 11

Filename C:\Ripped by Filex\11 - Planet of the Escapes.wav

Pre-gap length 0:00:01.11

Peak level 98.8 % Extraction speed 7.4 X Track quality 99.9 % Test CRC 3F633736 Copy CRC 3F633736 Track not present in AccurateRip database Copy OK

Track 12

Filename C:\Ripped by Filex\12 - The Hating Game.wav

Pre-gap length 0:00:01.37

Peak level 94.3 % Extraction speed 8.3 X Track quality 100.0 % Test CRC 623343BB Copy CRC 623343BB Track not present in AccurateRip database Copy OK

Track 13

Filename C:\Ripped by Filex\13 - A Man Named Suicide.wav

Pre-gap length 0:00:01.37

Peak level 94.4 % Extraction speed 9.0 X Track quality 99.9 % Test CRC D3F0085A Copy CRC D3F0085A Track not present in AccurateRip database Copy OK

Track 14

Filename C:\Ripped by Filex\14 - More Red Than Alive.wav

Pre-gap length 0:00:01.37

Peak level 96.5 % Extraction speed 8.9 X Track quality 100.0 % Test CRC C85D76E1 Copy CRC C85D76E1 Track not present in AccurateRip database Copy OK

Track 15

Filename C:\Ripped by Filex\15 - Migration.wav

Pre-gap length 0:00:01.37

Peak level 98.3 % Extraction speed 9.0 X Track quality 100.0 % Test CRC 7D8A40DA Copy CRC 7D8A40DA Track not present in AccurateRip database Copy OK

Track 16

Filename C:\Ripped by Filex\16 - Paradise Found.wav

Pre-gap length 0:00:01.37

Peak level 94.4 % Extraction speed 10.0 X Track quality 100.0 % Test CRC C554B097 Copy CRC C554B097 Track not present in AccurateRip database Copy OK

Track 17

Filename C:\Ripped by Filex\17 - End Credits.wav

Pre-gap length 0:00:01.37

Peak level 98.3 % Extraction speed 10.2 X Track quality 99.9 % Test CRC D011C44F Copy CRC D011C44F Track not present in AccurateRip database Copy OK

None of the tracks are present in the AccurateRip database

No errors occurred

End of status report

---- CUETools DB Plugin V2.1.6

[CTDB TOCID: cBD.mefmKK1m_ujZhGpDi4.qo64-] foundSubmit result: cBD.mefmKK1m_ujZhGpDi4.qo64- has been confirmedTrack | CTDB Status 1 | (4/4) Accurately ripped 2 | (4/4) Accurately ripped 3 | (4/4) Accurately ripped 4 | (4/4) Accurately ripped 5 | (4/4) Accurately ripped 6 | (4/4) Accurately ripped 7 | (4/4) Accurately ripped 8 | (4/4) Accurately ripped 9 | (4/4) Accurately ripped 10 | (4/4) Accurately ripped 11 | (4/4) Accurately ripped 12 | (4/4) Accurately ripped 13 | (4/4) Accurately ripped 14 | (4/4) Accurately ripped 15 | (4/4) Accurately ripped 16 | (4/4) Accurately ripped 17 | (4/4) Accurately ripped

==== Log checksum FEDA3F40C25B28746F197394F556CEDF8B3926AFD6CD7E713D92C3201BA5F50E ====
REM GENRE SoundtrackREM DATE 2017REM DISCID 1911BE11REM COMMENT "ExactAudioCopy v1.3"PERFORMER "Michael Giacchino"TITLE "War for the Planet of the Apes"REM COMPOSER "Michael Giacchino"FILE "01 - Apes' Past Is Prologue.wav" WAVE TRACK 01 AUDIO TITLE "Apes' Past Is Prologue" PERFORMER "Michael Giacchino" REM COMPOSER "Griffith Giacchino" INDEX 01 00:00:00 TRACK 02 AUDIO TITLE "Assault of the Earth" PERFORMER "Michael Giacchino" REM COMPOSER "Michael Giacchino" INDEX 00 10:53:36FILE "02 - Assault of the Earth.wav" WAVE INDEX 01 00:00:00 TRACK 03 AUDIO TITLE "Exodus Wounds" PERFORMER "Michael Giacchino" REM COMPOSER "Michael Giacchino" INDEX 00 05:29:11FILE "03 - Exodus Wounds.wav" WAVE INDEX 01 00:00:00 TRACK 04 AUDIO TITLE "The Posse Polonaise" PERFORMER "Michael Giacchino" REM COMPOSER "Michael Giacchino" INDEX 00 04:22:72FILE "04 - The Posse Polonaise.wav" WAVE INDEX 01 00:00:00 TRACK 05 AUDIO TITLE "The Bad Ape Bagatelle" PERFORMER "Michael Giacchino" REM COMPOSER "Michael Giacchino" INDEX 00 01:39:58FILE "05 - The Bad Ape Bagatelle.wav" WAVE INDEX 01 00:00:00 TRACK 06 AUDIO TITLE "Don't Luca Now" PERFORMER "Michael Giacchino" REM COMPOSER "Michael Giacchino" INDEX 00 01:13:58FILE "06 - Don't Luca Now.wav" WAVE INDEX 01 00:00:00 TRACK 07 AUDIO TITLE "Koba Dependent" PERFORMER "Michael Giacchino" REM COMPOSER "Michael Giacchino" INDEX 00 03:53:54FILE "07 - Koba Dependent.wav" WAVE INDEX 01 00:00:00 TRACK 08 AUDIO TITLE "The Ecstasy of the Bold" PERFORMER "Michael Giacchino" REM COMPOSER "Michael Giacchino" INDEX 00 02:54:66FILE "08 - The Ecstasy of the Bold.wav" WAVE INDEX 01 00:00:00 TRACK 09 AUDIO TITLE "Apes Together Strong" PERFORMER "Michael Giacchino" REM COMPOSER "Michael Giacchino" INDEX 00 01:57:21FILE "09 - Apes Together Strong.wav" WAVE INDEX 01 00:00:00 TRACK 10 AUDIO TITLE "A Tide in the Affairs of Apes" PERFORMER "Michael Giacchino" REM COMPOSER "Michael Giacchino" INDEX 00 07:12:25FILE "10 - A Tide in the Affairs of Apes.wav" WAVE INDEX 01 00:00:00 TRACK 11 AUDIO TITLE "Planet of the Escapes" PERFORMER "Michael Giacchino" REM COMPOSER "Michael Giacchino" INDEX 00 05:31:38FILE "11 - Planet of the Escapes.wav" WAVE INDEX 01 00:00:00 TRACK 12 AUDIO TITLE "The Hating Game" PERFORMER "Michael Giacchino" REM COMPOSER "Michael Giacchino" INDEX 00 02:42:65FILE "12 - The Hating Game.wav" WAVE INDEX 01 00:00:00 TRACK 13 AUDIO TITLE "A Man Named Suicide" PERFORMER "Michael Giacchino" REM COMPOSER "Michael Giacchino" INDEX 00 02:04:63FILE "13 - A Man Named Suicide.wav" WAVE INDEX 01 00:00:00 TRACK 14 AUDIO TITLE "More Red Than Alive" PERFORMER "Michael Giacchino" REM COMPOSER "Michael Giacchino" INDEX 00 05:32:11FILE "14 - More Red Than Alive.wav" WAVE INDEX 01 00:00:00 TRACK 15 AUDIO TITLE "Migration" PERFORMER "Michael Giacchino" REM COMPOSER "Michael Giacchino" INDEX 00 02:41:04FILE "15 - Migration.wav" WAVE INDEX 01 00:00:00 TRACK 16 AUDIO TITLE "Paradise Found" PERFORMER "Michael Giacchino" REM COMPOSER "Michael Giacchino" INDEX 00 02:03:39FILE "16 - Paradise Found.wav" WAVE INDEX 01 00:00:00 TRACK 17 AUDIO TITLE "End Credits" PERFORMER "Michael Giacchino" REM COMPOSER "Michael Giacchino" INDEX 00 05:35:47FILE "17 - End Credits.wav" WAVE INDEX 01 00:00:00
RG Soundtracks

Трекер:  [ 25-Июл-2017 22:06 ]

  

Скачать .torrent

Размер .torrent файла 17 KB


Размер: 382 MB
Хэш (hash) релиза: dccabee466cb1eda87a85b6145c6d7f8674da769

Торренты, похожие на Планета обезьян: Война War for the Planet of the Apes скачать торрент

Форум Название Автор Размер S L Добавлен
Саундтреки к фильмам и мультфильмам (mp3) ·· (Score) Восстание планеты обезьян | Планета обезьян: Революция | Война / Rise Of The Planet Of The Apes| Dawn of the | War for the (Patrick Doyle, Michael Giacchino) (3 Albums) - 2011-2017, MP3, 320 kbps Galfimbul 525384431501 MB 1 1 1499371934

23:12

6-Июл-17

Еще никто не оставлял запись к записи скачать торрент Планета обезьян: Война War for the Planet of the Apes . Будь первым!

!Обратная связь