Скачать через торрент КВН-2017. Вся премьер лига 2017 года Фильм бесплатно в хорошем качестве torrent

Скачивайте на UnionPeer.org фильмы через торрент без регистрации. Новинки кино в хорошем качестве через торрент. На UnionPeer.org можно скачать через торрент фильмы 2014 и 2015 годов. Самые новые фильмы.

Скачать торрент КВН-2017. Вся премьер лига 2017 года бесплатно через .torrent фильм мультфильм сериал

Если у вас наблюдаются проблемы со скриншотами, переходом по ссылками, скачиванием торрентов - проблемы в блокировщике рекламы AdBlock. #хорошегоДня!


Статистика раздачи
Размер:  868 MB   |    Зарегистрирован:  4 месяца 18 дней   |    .torrent скачан:  36 раз   |   
Раздают:  1  
   
Загрузка...
 
Автор Сообщение

Galfimbul

avatar Galfimbul


КВН-2017. Вся премьер лига 2017 года
Год выпуска: 2017
Страна: Россия
Жанр: Тв-шоу, юмор
Перевод: Не требуется
Русские субтитры: нет

качество: HDTVRip
формат: MKV
видеокодек: H.264
аудиокодек: mp2
Видео: h264 720x408 25 fps 1465 kpps 0.2 bit/pixe
Аудио: Russian (mp2, 48.0 KHz, 2 ch 192 kbps)
<div class="sp-wrap">
<div class="sp-head folded">(01) 1-1/8</div>
<div class="sp-body">Команды: Есть смысл спасать (Воронеж), Сборная РУДН (Москва), Я обиделась (Новосибирск), Сборная КубГУ (Краснодар), Меган Фокс (Москва), Голливуд (Воронеж), Казань (Казань), Сборная Тульской области
Несколько позже обычного в этом году начинаются телеэфиры Премьер-лиги. Со времени самой игры без недели прошло уже 5 месяцев. Кроме игры этапа одной восьмой ко времени начала эфиров традиционно уже прошли и четвертьфиналы, и полуфиналы, поэтому для тех, кто следит за КВН по играм уже давно известен финальный расклад. Мы же только начинаем наблюдать за развитием событий в этом сезоне.

Тема сезона: Юбилейный сезон
Жюри: Эльдияр Кененсаров, Филипп Воронин, Герман Иванов, Валерий Равдин
Приветствие

Меган Фокс

- стихи и песни для прохода в четвертьфинал
- крестовый поход
- у лучшего друга появилась девушка
- музыкант и его возлюбленная без голоса и слуха

Голливуд

- ролевые игры
- наказание
- ругательства со стороны
- помощь врача

Я обиделась

- в конюшне
- парень проиграл своей девушке в "FIFA"
- что было бы, если бы девушки на кухне выглядели бы так же, как парни возле мангала
- в женском гетто
- девушки на американских горках застряли вниз головой

Сборная Тульской области

- человек не в себе
- рэп-баттл
- творческий дуэт девушки и таракана
- урок этики
- галлы-чемпионы

Сборная КубГУ

- обращение губернатора Краснодарского края
- семья паромщика смотрит, как достраивают керченский мост
- человек, который совсем не умеет успокаивать, пришёл на похороны
- во дворе
- урок в бедуинской школе
- крайние меры от очередей в паспортных столах
- женская сигнализация
- мать утешает сына на шоу "Голос. Дети"
- реквизитор Елены Малышевой на передаче "Жить здорово!"
- черепаха-предсказатель

Казань

- новые любовные отношения
- лучший актёр Костян
- репортаж с места ДТП
- самый загадочный человек на вечеринке
- учительница русского языка и литературы
- голос пилота в самолёте спустя 3 часа полёта

Сборная РУДН

- негру послышалось
- в больнице
- кавказец около торгового центра
- баттл кавказцев и африканцев

Есть смысл спасать

- противоназарные средства
- ветеран Премьер-лиги
- песня про команду
- жена товарища майора провожает мужа на КВН

Дата игры: 28.02.2017
Дата эфира: 22.07.2017
</div>
</div>
<div class="sp-wrap">
<div class="sp-head folded">(01) 1-1/8</div>
<div class="sp-body">Общее
Уникальный идентификатор : 234372006218576126932909558780043975188 (0xB052680FBEABCFE5B7ABA1827DABDA14)
Полное имя : H:\трекер\KVN.2017.Premier.AVC.All\KVN.2017.Premier.(01).1.1-8.HDTVRip-AVC.mkv
Формат : Matroska
Версия формата : Version 4 / Version 2
Размер файла : 868 Мбайт
Продолжительность : 1 ч. 13 м.
Общий поток : 1659 Кбит/сек
Дата кодирования : UTC 2017-07-23 17:02:17
Программа кодирования : mkvmerge v14.0.0 ('Flow') 64bit
Библиотека кодирования : libebml v1.3.4 + libmatroska v1.4.5
Обложка : Yes
Attachments : cover.jpg

Видео
Идентификатор : 1
Формат : AVC
Формат/Информация : Advanced Video Codec
Профиль формата : High@L3.1
Параметр CABAC формата : Да
Параметр RefFrames формата : 9 кадров
Идентификатор кодека : V_MPEG4/ISO/AVC
Продолжительность : 1 ч. 13 м.
Битрейт : 1465 Кбит/сек
Ширина : 720 пикселей
Высота : 408 пикселей
Соотношение сторон : 16:9
Режим частоты кадров : Постоянный
Частота кадров : 25,000 кадров/сек
Цветовое пространство : YUV
Субдискретизация насыщенности : 4:2:0
Битовая глубина : 8 бит
Тип развёртки : Прогрессивная
Бит/(Пиксели*Кадры) : 0.199
Размер потока : 767 Мбайт (88%)
Библиотека кодирования : x264 core 152 r2851 ba24899
Настройки программы : cabac=1 / ref=9 / deblock=1:-1:-1 / analyse=0x3:0x133 / me=umh / subme=11 / psy=1 / psy_rd=1.05:0.00 / mixed_ref=1 / me_range=32 / chroma_me=1 / trellis=2 / 8x8dct=1 / cqm=0 / deadzone=21,11 / fast_pskip=0 / chroma_qp_offset=-2 / threads=6 / lookahead_threads=1 / sliced_threads=0 / nr=0 / decimate=0 / interlaced=0 / bluray_compat=0 / constrained_intra=0 / bframes=8 / b_pyramid=2 / b_adapt=2 / b_bias=0 / direct=3 / weightb=1 / open_gop=0 / weightp=2 / keyint=250 / keyint_min=25 / scenecut=40 / intra_refresh=0 / rc=2pass / mbtree=0 / bitrate=1465 / ratetol=1.0 / qcomp=0.65 / qpmin=0 / qpmax=69 / qpstep=4 / cplxblur=20.0 / qblur=0.5 / ip_ratio=1.40 / pb_ratio=1.30 / aq=1:1.00
Язык : Russian
Default : Да
Forced : Нет

Аудио
Идентификатор : 2
Формат : MPEG Audio
Версия формата : Version 1
Профиль формата : Layer 2
Идентификатор кодека : A_MPEG/L2
Идентификатор кодека/Подсказка : MP2
Продолжительность : 1 ч. 13 м.
Вид битрейта : Постоянный
Битрейт : 192 Кбит/сек
Каналы : 2 канала
Частота : 48,0 КГц
Частота кадров : 41,667 кадра/сек (1152 SPF)
Метод сжатия : С потерями
Размер потока : 100 Мбайт (12%)
Язык : Russian
Default : Да
Forced : Нет
</div>
</div>
Внимание! Раздача ведётся путём добавления новых серий; при каждом добавлении создаётся новый торрент. Чтобы начать докачку новой серии, пользователям необходимо сделать следующее:
(1) остановить скачивание,
(2) удалить старый торрент у себя из клиента (старые серии удалять не надо),
(3) скачать новый торрент и запустить его у себя в клиенте вместо старого, при этом указать клиенту путь в старую папку куда и должно происходить скачивание новых серий.
Ваш клиент при этом должен произвести хеширование (проверку) старой папки (если не производит сам - помогите ему сделать это), и будет докачивать только те серии которых у вас ещё нет. Старые серии при этом не удаляются, а продолжают раздаваться!
Eсли вы уже удалили старые серии, то предотвратить повторную закачку старых серий можно, отжав галочку в соответсвующих местах при запуске нового торрента. По возможности, желательно не удалять старые серии как можно дольше чтобы релизёр не столько продолжал раздавать старые серии, а смог сконцентрироваться на новых.


Трекер:  [ 23-Июл-2017 20:12 ]

  

Скачать .torrent

Размер .torrent файла 17 KB


Размер: 868 MB
Хэш (hash) релиза: 4467e98511efaeca2df7fe774b652b7ae4b48835
Подписка на обновления:

Торренты, похожие на КВН-2017. Вся премьер лига 2017 года скачать торрент

Форум Название Автор Размер S L Добавлен
Развлекательные телепередачи и шоу ·· КВН-2017. Вся премьер лига 2017 года (01 из 08) [2017, Тв-шоу, юмор, HDTVRip 720p] Galfimbul 26308264902.45 GB 0 0 1500867872

06:44

24-Июл-17

Еще никто не оставлял запись к записи скачать торрент КВН-2017. Вся премьер лига 2017 года . Будь первым!

!Обратная связь