Скачать через торрент музыку Jane Monheit - Коллекция бесплатно без регистрации torrent

Если у вас наблюдаются проблемы со скриншотами, переходом по ссылками, скачиванием торрентов - проблемы в блокировщике рекламы AdBlock. #хорошегоДня!


Статистика раздачи
Размер:  2.5 GB   |    Зарегистрирован:  6 лет   |    .torrent скачан:  70 раз   |   
Раздают:  1  
   
Загрузка...
 
Автор Сообщение

L


Jane Monheit
Коллекция


Жанр: jazz, female vocal
Complete Artwork
Года выхода альбомов: 2000 - 2009
Общая продолжительность: 07:06:29

Об исполнителе


Джейн Монхейт (Jane Monheit, род. 3.11.1977) - американская джазовая исполнительница. Является обладательницей нескольких наград Грэмми. Вся ее семья очень музыкальна: тетя и бабушка были профессиональными певицами, мать играла в музыкальном театре, отец был исполнителем на банджо, а брат Джейн – рок-гитарист. Девочкой она проводила бесчисленные часы, слушая джазовые записи родителей, особенно Эллу Фитцджеральд, Сару Вон, Кармен МакРа и Джони Митчелл. Они-то и оказали на нее наибольшее влияние.

Дебютный альбом исполнительницы вышел в 2000 году.
Альбомы


Год выпуска альбома: 2000
Год выпуска диска: 2002
Производитель диска: Sony Music Entertainment / Columbia N-Coded Music (509476 2)
Аудио кодек: FLAC
Тип рипа: tracks+.cue
Битрейт аудио: lossless
Продолжительность: 00:46:19

Треклист:
01. Please Be Kind
02. Detour Ahead
03. More Than You Know
04. Dindi
05. Save Your Love for Me
06. Never Let Me Go
07. My Foolish Heart
08. I Got It Bad (and That Ain't Good)
09. Twisted
10. Never Never Land

Personnel:
Jane Monheit - (vocals)
Hank Crawford - (alto saxophone)
David "Fathead" Newman - (tenor saxophone, flute)
Kenny Barron - (piano)
Bucky Pizzarelli - (guitar)
Ron Carter - (bass)
Lewis Nash - (drums)
 
Exact Audio Copy V0.99 prebeta 4 from 23. January 2008

EAC extraction logfile from 25. May 2009, 23:42

Jane Monheit / Never Never Land

Used drive : PLEXTOR DVDR PX-810SA Adapter: 3 ID: 1

Read mode : SecureUtilize accurate stream : YesDefeat audio cache : YesMake use of C2 pointers : No

Read offset correction : 48Overread into Lead-In and Lead-Out : NoFill up missing offset samples with silence : YesDelete leading and trailing silent blocks : NoNull samples used in CRC calculations : YesUsed interface : Native Win32 interface for Win NT & 2000Gap handling : Appended to previous track

Used output format : User Defined EncoderSelected bitrate : 128 kBit/sQuality : HighAdd ID3 tag : NoCommand line compressor : C:\Archivos de programa\Exact Audio Copy\Flac\flac.exeAdditional command line options : -8 -V -T "artist=%a" -T "title=%t" -T "album=%g" -T "date=%y" -T "tracknumber=%n" -T "genre=%m" %s

TOC of the extracted CD

Track | Start | Length | Start sector | End sector --------------------------------------------------------- 1 | 0:00.00 | 3:43.50 | 0 | 16774 2 | 3:43.50 | 6:30.22 | 16775 | 46046 3 | 10:13.72 | 3:04.40 | 46047 | 59886 4 | 13:18.37 | 4:52.50 | 59887 | 81836 5 | 18:11.12 | 5:21.30 | 81837 | 105941 6 | 23:32.42 | 4:00.70 | 105942 | 124011 7 | 27:33.37 | 4:32.25 | 124012 | 144436 8 | 32:05.62 | 6:15.43 | 144437 | 172604 9 | 38:21.30 | 4:01.25 | 172605 | 190704 10 | 42:22.55 | 3:57.07 | 190705 | 208486

Track 1

Filename C:\audio-rips\01 - Please Be Kind.wav

Pre-gap length 0:00:02.00

Peak level 99.9 % Track quality 100.0 % Test CRC 6D102427 Copy CRC 6D102427 Accurately ripped (confidence 6) [19C0216D] Copy OK

Track 2

Filename C:\audio-rips\02 - Detour Ahead.wav

Peak level 99.9 % Track quality 100.0 % Test CRC 1DA46C64 Copy CRC 1DA46C64 Accurately ripped (confidence 6) [0C2778A2] Copy OK

Track 3

Filename C:\audio-rips\03 - More Than You Know.wav

Peak level 99.9 % Track quality 100.0 % Test CRC D7BC1E00 Copy CRC D7BC1E00 Accurately ripped (confidence 6) [995F7AB6] Copy OK

Track 4

Filename C:\audio-rips\04 - Dindi.wav

Peak level 99.9 % Track quality 100.0 % Test CRC B4D6A524 Copy CRC B4D6A524 Accurately ripped (confidence 6) [30EA53BB] Copy OK

Track 5

Filename C:\audio-rips\05 - Save Your Love for Me.wav

Peak level 99.9 % Track quality 99.9 % Test CRC 278EA465 Copy CRC 278EA465 Accurately ripped (confidence 6) [750BBAAB] Copy OK

Track 6

Filename C:\audio-rips\06 - Never Let Me Go.wav

Peak level 99.9 % Track quality 100.0 % Test CRC 92A14274 Copy CRC 92A14274 Accurately ripped (confidence 6) [B876D078] Copy OK

Track 7

Filename C:\audio-rips\07 - My Foolish Heart.wav

Peak level 99.9 % Track quality 100.0 % Test CRC F51DE4D9 Copy CRC F51DE4D9 Accurately ripped (confidence 6) [22409624] Copy OK

Track 8

Filename C:\audio-rips\08 - I Got It Bad (and That Ain't Good).wav

Peak level 97.9 % Track quality 99.9 % Test CRC 525F8275 Copy CRC 525F8275 Accurately ripped (confidence 6) [0B3E88D6] Copy OK

Track 9

Filename C:\audio-rips\09 - Twisted.wav

Peak level 99.9 % Track quality 100.0 % Test CRC 922FCC55 Copy CRC 922FCC55 Accurately ripped (confidence 6) [8929966F] Copy OK

Track 10

Filename C:\audio-rips\10 - Never Never Land.wav

Peak level 99.9 % Track quality 99.9 % Test CRC 061F74E7 Copy CRC 061F74E7 Accurately ripped (confidence 6) [7BE76CF2] Copy OK

All tracks accurately ripped

No errors occurred

End of status report
 
REM GENRE JazzREM DATE 2002REM DISCID 710ADB0AREM COMMENT "ExactAudioCopy v0.99pb4"PERFORMER "Jane Monheit"TITLE "Never Never Land"FILE "01 - Please Be Kind.wav" WAVE TRACK 01 AUDIO TITLE "Please Be Kind" PERFORMER "Jane Monheit" INDEX 01 00:00:00FILE "02 - Detour Ahead.wav" WAVE TRACK 02 AUDIO TITLE "Detour Ahead" PERFORMER "Jane Monheit" INDEX 01 00:00:00FILE "03 - More Than You Know.wav" WAVE TRACK 03 AUDIO TITLE "More Than You Know" PERFORMER "Jane Monheit" INDEX 01 00:00:00FILE "04 - Dindi.wav" WAVE TRACK 04 AUDIO TITLE "Dindi" PERFORMER "Jane Monheit" INDEX 01 00:00:00FILE "05 - Save Your Love for Me.wav" WAVE TRACK 05 AUDIO TITLE "Save Your Love for Me" PERFORMER "Jane Monheit" INDEX 01 00:00:00FILE "06 - Never Let Me Go.wav" WAVE TRACK 06 AUDIO TITLE "Never Let Me Go" PERFORMER "Jane Monheit" INDEX 01 00:00:00FILE "07 - My Foolish Heart.wav" WAVE TRACK 07 AUDIO TITLE "My Foolish Heart" PERFORMER "Jane Monheit" INDEX 01 00:00:00FILE "08 - I Got It Bad (and That Ain't Good).wav" WAVE TRACK 08 AUDIO TITLE "I Got It Bad (and That Ain't Good)" PERFORMER "Jane Monheit" INDEX 01 00:00:00FILE "09 - Twisted.wav" WAVE TRACK 09 AUDIO TITLE "Twisted" PERFORMER "Jane Monheit" INDEX 01 00:00:00FILE "10 - Never Never Land.wav" WAVE TRACK 10 AUDIO TITLE "Never Never Land" PERFORMER "Jane Monheit" INDEX 01 00:00:00


Диск взят с другого трекера. Спасибо bradpito
Год выпуска альбома и диска: 2001
Производитель диска: Warlock Records / N-Coded Music (NC-4219-2)
Аудио кодек: FLAC
Тип рипа: tracks+.cue
Битрейт аудио: lossless
Продолжительность: 00:52:47

Треклист:
01. Over the Rainbow
02. Hit the Road to Dreamland
03. Spring Can Really Hang You up the Most
04. Waters of March
05. I'm Through With Love
06. I'll Be Seeing You
07. Something to Live For
08. So Many Stars
09. If
10. Blame It on My Youth
11. A Case of You
12. Over the Rainbow (Reprise)

Personnel:
Jane Monheit - (vocals)
Michael Brecker - (saxophone)
Tom Harrell - (trumpet)
Kenny Barron - (piano)
Richard Bona - (electric & fretless basses)
Christian McBride - (bass)
Greg Hutchinson - (drums)
 
EAC extraction logfile from 23. June 2006, 0:15 for CDJane Monheit / Come Dream With Me

Used drive : PLEXTOR DVDR PX-716A Adapter: 1 ID: 0Read mode : Secure with NO C2, accurate stream, disable cacheRead offset correction : 30Overread into Lead-In and Lead-Out : Yes

Used output format : C:\Programmi\Exact Audio Copy\flac-1.1.2-win\bin\flac.exe (User Defined Encoder) 32 kBit/s Additional command line options : -8 -V %s

Other options : Fill up missing offset samples with silence : Yes Delete leading and trailing silent blocks : No Installed external ASPI interface

Track 1 Filename F:\[MyRip]\01 - Over The Rainbow.wav

Pre-gap length 0:00:02.00

Peak level 89.1 % Track quality 100.0 % Test CRC 32071CCF Copy CRC 32071CCF Copy OK

Track 2 Filename F:\[MyRip]\02 - Hit The Road To Dreamland.wav

Pre-gap length 0:00:01.55

Peak level 99.9 % Track quality 100.0 % Test CRC 5A33C7F5 Copy CRC 5A33C7F5 Copy OK

Track 3 Filename F:\[MyRip]\03 - Spring Can Really Hang You Up The Most.wav

Pre-gap length 0:00:01.55

Peak level 100.0 % Track quality 99.9 % Test CRC ADDE2B32 Copy CRC ADDE2B32 Copy OK

Track 4 Filename F:\[MyRip]\04 - Waters Of March.wav

Pre-gap length 0:00:02.55

Peak level 99.9 % Track quality 100.0 % Test CRC 9B5BC903 Copy CRC 9B5BC903 Copy OK

Track 5 Filename F:\[MyRip]\05 - I'm Through With Love.wav

Pre-gap length 0:00:01.73

Peak level 99.9 % Track quality 100.0 % Test CRC 9F22E24C Copy CRC 9F22E24C Copy OK

Track 6 Filename F:\[MyRip]\06 - I'll Be Seeing You.wav

Pre-gap length 0:00:01.55

Peak level 100.0 % Track quality 100.0 % Test CRC 380CBAC1 Copy CRC 380CBAC1 Copy OK

Track 7 Filename F:\[MyRip]\07 - Something To Live For.wav

Pre-gap length 0:00:01.33

Peak level 100.0 % Track quality 99.9 % Test CRC 3C15B7D4 Copy CRC 3C15B7D4 Copy OK

Track 8 Filename F:\[MyRip]\08 - So Many Stars.wav

Pre-gap length 0:00:00.55

Peak level 99.9 % Track quality 100.0 % Test CRC F6DEBE17 Copy CRC F6DEBE17 Copy OK

Track 9 Filename F:\[MyRip]\09 - If.wav

Pre-gap length 0:00:00.55

Peak level 99.9 % Track quality 100.0 % Test CRC F6599942 Copy CRC F6599942 Copy OK

Track 10 Filename F:\[MyRip]\10 - Blame It On My Youth.wav

Peak level 100.0 % Track quality 100.0 % Test CRC C6BDD1EC Copy CRC C6BDD1EC Copy OK

Track 11 Filename F:\[MyRip]\11 - A Case Of You.wav

Pre-gap length 0:00:01.55

Peak level 85.1 % Track quality 100.0 % Test CRC 9434FF85 Copy CRC 9434FF85 Copy OK

Track 12 Filename F:\[MyRip]\12 - Over The Rainbow (Reprise).wav

Pre-gap length 0:00:04.55

Peak level 14.4 % Track quality 100.0 % Test CRC AD47A7AF Copy CRC AD47A7AF Copy OK

No errors occured

End of status report
 
REM GENRE JazzREM DATE 2001REM DISCID 960C5F0CREM COMMENT "ExactAudioCopy v0.95b3"PERFORMER "Jane Monheit"TITLE "Come Dream With Me"FILE "01 - Over The Rainbow.wav" WAVE TRACK 01 AUDIO TITLE "Over The Rainbow" PERFORMER "Jane Monheit" INDEX 01 00:00:00 TRACK 02 AUDIO TITLE "Hit The Road To Dreamland" PERFORMER "Jane Monheit" INDEX 00 06:38:65FILE "02 - Hit The Road To Dreamland.wav" WAVE INDEX 01 00:00:00 TRACK 03 AUDIO TITLE "Spring Can Really Hang You Up The Most" PERFORMER "Jane Monheit" INDEX 00 04:05:32FILE "03 - Spring Can Really Hang You Up The Most.wav" WAVE INDEX 01 00:00:00 TRACK 04 AUDIO TITLE "Waters Of March" PERFORMER "Jane Monheit" INDEX 00 06:47:25FILE "04 - Waters Of March.wav" WAVE INDEX 01 00:00:00 TRACK 05 AUDIO TITLE "I'm Through With Love" PERFORMER "Jane Monheit" INDEX 00 04:41:65FILE "05 - I'm Through With Love.wav" WAVE INDEX 01 00:00:00 TRACK 06 AUDIO TITLE "I'll Be Seeing You" PERFORMER "Jane Monheit" INDEX 00 03:16:40FILE "06 - I'll Be Seeing You.wav" WAVE INDEX 01 00:00:00 TRACK 07 AUDIO TITLE "Something To Live For" PERFORMER "Jane Monheit" INDEX 00 03:07:22FILE "07 - Something To Live For.wav" WAVE INDEX 01 00:00:00 TRACK 08 AUDIO TITLE "So Many Stars" PERFORMER "Jane Monheit" INDEX 00 05:35:47FILE "08 - So Many Stars.wav" WAVE INDEX 01 00:00:00 TRACK 09 AUDIO TITLE "If" PERFORMER "Jane Monheit" INDEX 00 04:34:18FILE "09 - If.wav" WAVE INDEX 01 00:00:00FILE "10 - Blame It On My Youth.wav" WAVE TRACK 10 AUDIO TITLE "Blame It On My Youth" PERFORMER "Jane Monheit" INDEX 01 00:00:00 TRACK 11 AUDIO TITLE "A Case Of You" PERFORMER "Jane Monheit" INDEX 00 04:28:60FILE "11 - A Case Of You.wav" WAVE INDEX 01 00:00:00 TRACK 12 AUDIO TITLE "Over The Rainbow (Reprise)" PERFORMER "Jane Monheit" INDEX 00 04:23:32FILE "12 - Over The Rainbow (Reprise).wav" WAVE INDEX 01 00:00:00
 
[CUETools log; Date: 06.08.2010 20:30:39; Version: 2.0.9][CTDB TOCID: 3D_No9r7fPZqZvxXElFC3cf5j6U-] disk not present in database.[AccurateRip ID: 001a2aff-00eeccda-960c5f0c] found.Track [ CRC ] Status 01 [892a2912] (38/83) Accurately ripped 02 [723adb8d] (38/82) Accurately ripped 03 [afded4b3] (36/81) Accurately ripped 04 [52e50e2e] (37/82) Accurately ripped 05 [7fc12732] (37/82) Accurately ripped 06 [90398bc3] (38/82) Accurately ripped 07 [7ad898fe] (37/80) Accurately ripped 08 [69f4e8da] (37/81) Accurately ripped 09 [80f2de7f] (38/82) Accurately ripped 10 [f198c59e] (38/81) Accurately ripped 11 [e00b6184] (37/80) Accurately ripped 12 [99095103] (34/81) Accurately rippedOffsetted by -664: 01 [b27bf3fa] (02/83) Accurately ripped 02 [05b22fbd] (02/82) Accurately ripped 03 [482ed03b] (02/81) Accurately ripped 04 [1a4dbc06] (02/82) Accurately ripped 05 [7b1ddbea] (02/82) Accurately ripped 06 [82817ed3] (02/82) Accurately ripped 07 [3f2d09de] (02/80) Accurately ripped 08 [bd068cfa] (02/81) Accurately ripped 09 [f1d95a07] (02/82) Accurately ripped 10 [e6f7a226] (02/81) Accurately ripped 11 [876d4e14] (02/80) Accurately ripped 12 [cd7abca1] (02/81) Accurately rippedOffsetted by -98: 01 [860291d0] (03/83) Accurately ripped 02 [77cd3d91] (03/82) Accurately ripped 03 [c5944629] (03/81) Accurately ripped 04 [3d6f1b80] (03/82) Accurately ripped 05 [c2ece86c] (03/82) Accurately ripped 06 [29f583af] (03/82) Accurately ripped 07 [40b0a066] (03/80) Accurately ripped 08 [da753332] (03/81) Accurately ripped 09 [d4b22ff5] (03/82) Accurately ripped 10 [325759d4] (03/81) Accurately ripped 11 [2ba3db90] (03/80) Accurately ripped 12 [22481947] (03/81) Accurately rippedOffsetted by 14: 01 [f7546340] (40/83) Accurately ripped 02 [716f16b1] (39/82) Accurately ripped 03 [f5e97b59] (40/81) Accurately ripped 04 [31639e90] (40/82) Accurately ripped 05 [519654bc] (40/82) Accurately ripped 06 [c367d60f] (39/82) Accurately ripped 07 [cc4c05a6] (38/80) Accurately ripped 08 [35504bf2] (39/81) Accurately ripped 09 [998e6525] (39/82) Accurately ripped 10 [560fd504] (38/81) Accurately ripped 11 [f9d106f0] (38/80) Accurately ripped 12 [17b73467] (39/81) Accurately ripped

Track Peak [ CRC32 ] [W/O NULL] [ LOG ] -- 99,9 [203DF8EA] [29599CCC] 01 89,1 [32071CCF] [7C15ABFD] CRC32 02 99,9 [5A33C7F5] [A02E8828] CRC32 03 99,9 [ADDE2B32] [CFCA969A] CRC32 04 99,9 [9B5BC903] [F0E2A6B9] CRC32 05 99,9 [9F22E24C] [DA3D04A0] CRC32 06 99,9 [380CBAC1] [84D4EF3F] CRC32 07 99,9 [3C15B7D4] [FCEA847F] CRC32 08 99,9 [F6DEBE17] [862D36EB] CRC32 09 99,9 [F6599942] [B49A89A0] CRC32 10 99,9 [C6BDD1EC] [04ABD012] CRC32 11 85,1 [9434FF85] [F108D538] CRC32 12 14,4 [AD47A7AF] [1EED9753] CRC32


Диск взят с другого трекера
Год выпуска альбома и диска: 2002
Производитель диска: Warlock Records / N-Coded Music (NC-4234-2)
Аудио кодек: FLAC
Тип рипа: tracks+.cue
Битрейт аудио: lossless
Продолжительность: 00:52:45

Треклист:
01. Just Squeeze Me
02. Chega De Saudade (No More Blues)
03. Once I Walked In The Sun
04. Some Other Time
05. Cheek To Cheek
06. Tea For Two
07. Love Has No Pride
08. Comecar De Novo
09. It Never Entered My Mind
10. Haunted Heart
11. Since You've Asked

Personnel:
Jane Monheit - (vocals)
Ivan Lins - (vocals, piano)
Alan Broadbent, Vince Mendoza - (arranger, conductor)
Joel Frahm - (tenor saxophone)
Tom Harrell - (trumpet)
Michael Kanan, Kenny Ascher - (piano)
Rene Toledo - (nylon string guitar)
Joe Martin, Ron Carter - (bass)
Rick Montalbano, Kenny Washington - (drums)
Don Alias - (percussion)
 
Exact Audio Copy V0.99 prebeta 4 from 23. January 2008

EAC extraction logfile from 10. April 2009, 15:00

Jane Monheit / In The Sun

Used drive : PLEXTOR CD-R PREMIUM2 Adapter: 1 ID: 1

Read mode : SecureUtilize accurate stream : YesDefeat audio cache : YesMake use of C2 pointers : No

Read offset correction : 30Overread into Lead-In and Lead-Out : YesFill up missing offset samples with silence : YesDelete leading and trailing silent blocks : NoNull samples used in CRC calculations : YesUsed interface : Installed external ASPI interfaceGap handling : Appended to previous track

Used output format : User Defined EncoderSelected bitrate : 32 kBit/sQuality : HighAdd ID3 tag : NoCommand line compressor : C:\Programmi\FLAC\flac.exeAdditional command line options : -8 -V -T "ARTIST=%a" -T "TITLE=%t" -T "ALBUM=%g" -T "DATE=%y" -T "TRACKNUMBER=%n" -T "GENRE=%m" -T "COMMENT=EAC FLAC -8" %s

TOC of the extracted CD

Track | Start | Length | Start sector | End sector --------------------------------------------------------- 1 | 0:00.00 | 4:01.27 | 0 | 18101 2 | 4:01.27 | 3:17.63 | 18102 | 32939 3 | 7:19.15 | 5:26.20 | 32940 | 57409 4 | 12:45.35 | 5:07.35 | 57410 | 80469 5 | 17:52.70 | 4:48.62 | 80470 | 102131 6 | 22:41.57 | 4:21.48 | 102132 | 121754 7 | 27:03.30 | 4:31.02 | 121755 | 142081 8 | 31:34.32 | 6:17.68 | 142082 | 170424 9 | 37:52.25 | 6:53.70 | 170425 | 201469 10 | 44:46.20 | 4:15.52 | 201470 | 220646 11 | 49:01.72 | 3:44.03 | 220647 | 237449

Track 1

Filename D:\My Rip\01 - Just Squeeze Me.wav

Pre-gap length 0:00:02.00

Peak level 89.1 % Track quality 100.0 % Test CRC 6AB2A8C6 Copy CRC 6AB2A8C6 Accurately ripped (confidence 14) [C23C5F58] Copy OK

Track 2

Filename D:\My Rip\02 - Chega De Saudade (No More Blues).wav

Pre-gap length 0:00:00.22

Peak level 75.0 % Track quality 100.0 % Test CRC D568FF15 Copy CRC D568FF15 Accurately ripped (confidence 14) [30F6FC8B] Copy OK

Track 3

Filename D:\My Rip\03 - Once I Walked In The Sun.wav

Pre-gap length 0:00:01.00

Peak level 89.1 % Track quality 100.0 % Test CRC 7280FFE1 Copy CRC 7280FFE1 Accurately ripped (confidence 14) [DF4A0750] Copy OK

Track 4

Filename D:\My Rip\04 - Some Other Time.wav

Peak level 89.1 % Track quality 99.9 % Test CRC E7B941D6 Copy CRC E7B941D6 Accurately ripped (confidence 14) [BA316062] Copy OK

Track 5

Filename D:\My Rip\05 - Cheek To Cheek.wav

Pre-gap length 0:00:01.24

Peak level 84.1 % Track quality 100.0 % Test CRC B7C67F92 Copy CRC B7C67F92 Accurately ripped (confidence 14) [ED76661A] Copy OK

Track 6

Filename D:\My Rip\06 - Tea For Two.wav

Pre-gap length 0:00:01.22

Peak level 99.9 % Track quality 99.9 % Test CRC 47049883 Copy CRC 47049883 Accurately ripped (confidence 14) [299E9583] Copy OK

Track 7

Filename D:\My Rip\07 - Love Has No Pride.wav

Pre-gap length 0:00:02.24

Peak level 100.0 % Track quality 100.0 % Test CRC D1C7AF1A Copy CRC D1C7AF1A Accurately ripped (confidence 14) [7BE24316] Copy OK

Track 8

Filename D:\My Rip\08 - Comecar De Novo.wav

Peak level 99.9 % Track quality 100.0 % Test CRC 9531D26B Copy CRC 9531D26B Accurately ripped (confidence 14) [F15912F0] Copy OK

Track 9

Filename D:\My Rip\09 - It Never Entered My Mind.wav

Peak level 99.9 % Track quality 100.0 % Test CRC BFF2A085 Copy CRC BFF2A085 Accurately ripped (confidence 14) [EA1624C6] Copy OK

Track 10

Filename D:\My Rip\10 - Haunted Heart.wav

Pre-gap length 0:00:00.86

Peak level 94.3 % Track quality 99.9 % Test CRC 94709B1F Copy CRC 94709B1F Accurately ripped (confidence 14) [07060FA8] Copy OK

Track 11

Filename D:\My Rip\11 - Since You've Asked.wav

Pre-gap length 0:00:01.00

Peak level 99.9 % Track quality 100.0 % Test CRC 76F86FC7 Copy CRC 76F86FC7 Accurately ripped (confidence 13) [69B14724] Copy OK

All tracks accurately ripped

No errors occurred

End of status report
 
REM GENRE JazzREM DATE 2002REM DISCID A00C5E0BREM COMMENT "ExactAudioCopy v0.99pb4"PERFORMER "Jane Monheit"TITLE "In The Sun"FILE "01 - Just Squeeze Me.wav" WAVE TRACK 01 AUDIO TITLE "Just Squeeze Me" PERFORMER "Jane Monheit" INDEX 01 00:00:00 TRACK 02 AUDIO TITLE "Chega De Saudade (No More Blues)" PERFORMER "Jane Monheit" INDEX 00 04:01:10FILE "02 - Chega De Saudade (No More Blues).wav" WAVE INDEX 01 00:00:00 TRACK 03 AUDIO TITLE "Once I Walked In The Sun" PERFORMER "Jane Monheit" INDEX 00 03:16:63FILE "03 - Once I Walked In The Sun.wav" WAVE INDEX 01 00:00:00FILE "04 - Some Other Time.wav" WAVE TRACK 04 AUDIO TITLE "Some Other Time" PERFORMER "Jane Monheit" INDEX 01 00:00:00 TRACK 05 AUDIO TITLE "Cheek To Cheek" PERFORMER "Jane Monheit" INDEX 00 05:06:17FILE "05 - Cheek To Cheek.wav" WAVE INDEX 01 00:00:00 TRACK 06 AUDIO TITLE "Tea For Two" PERFORMER "Jane Monheit" INDEX 00 04:47:45FILE "06 - Tea For Two.wav" WAVE INDEX 01 00:00:00 TRACK 07 AUDIO TITLE "Love Has No Pride" PERFORMER "Jane Monheit" INDEX 00 04:19:30FILE "07 - Love Has No Pride.wav" WAVE INDEX 01 00:00:00FILE "08 - Comecar De Novo.wav" WAVE TRACK 08 AUDIO TITLE "Comecar De Novo" PERFORMER "Jane Monheit" INDEX 01 00:00:00FILE "09 - It Never Entered My Mind.wav" WAVE TRACK 09 AUDIO TITLE "It Never Entered My Mind" PERFORMER "Jane Monheit" INDEX 01 00:00:00 TRACK 10 AUDIO TITLE "Haunted Heart" PERFORMER "Jane Monheit" INDEX 00 06:53:05FILE "10 - Haunted Heart.wav" WAVE INDEX 01 00:00:00 TRACK 11 AUDIO TITLE "Since You've Asked" PERFORMER "Jane Monheit" INDEX 00 04:14:52FILE "11 - Since You've Asked.wav" WAVE INDEX 01 00:00:00


Диск взят с другого трекера. Спасибо Sarchiapone
Год выпуска альбома и диска: 2004
Производитель диска: Sony Music Entertainment / Sony Classical (SK 92495)
Аудио кодек: FLAC
Тип рипа: tracks+.cue
Битрейт аудио: lossless
Продолжительность: 00:51:44

Треклист:
01. Honeysuckle Rose
02. In the Still of the Night
03. Taking a Chance on Love
04. Bill
05. I Won't Dance (Duet with Michael Bublé)
06. Too Late Now
07. Why Can't You Behave?
08. Do I Love You?
09. Love Me or Leave Me
10. Embraceable You
11. Dancing in the Dark
Bonus track:
12. Over the Rainbow
(from the original motion picture soundtrack "Sky captain and the world of tomorrow")

Personnel:
Jane Monheit - (vocals)
Michael Bublé - (vocals)
Lew Soloff, Michael Davis, Andy Snitzer, Roger Rosenberg, Lawrence Feldman, David Taylor, Jim Hynes, Bob Malach - (horns)
Christian McBride, Orlando Le Fleming, Ron Carter - (bass)
Romero Lubambo, Miles Okazaki - (guitar)
Joel Frahm - (soprano saxophone, alto saxophone, tenor saxophone)
Donald Harrison - (alto saxophone)
Geoff Keezer, Michael Kanan, Rob Mounsey - (piano)
Lewis Nash, Rick Montalbano - (drums)
 
EAC extraction logfile from 19. June 2006, 23:28 for CDJane Monheit / Taking A Chance On Love

Used drive : PLEXTOR DVDR PX-716A Adapter: 1 ID: 0Read mode : Secure with NO C2, accurate stream, disable cacheRead offset correction : 30Overread into Lead-In and Lead-Out : Yes

Used output format : C:\Programmi\Exact Audio Copy\flac-1.1.2-win\bin\flac.exe (User Defined Encoder) 32 kBit/s Additional command line options : -8 -V %s

Other options : Fill up missing offset samples with silence : Yes Delete leading and trailing silent blocks : No Installed external ASPI interface

Track 1 Filename F:\[MyRip]\01 - Honeysuckle Rose.wav

Pre-gap length 0:00:02.00

Peak level 100.0 % Track quality 100.0 % Test CRC E1732C71 Copy CRC E1732C71 Copy OK

Track 2 Filename F:\[MyRip]\02 - In The Still Of The Night.wav

Pre-gap length 0:00:01.29

Peak level 100.0 % Track quality 99.9 % Test CRC BAD95EE8 Copy CRC BAD95EE8 Copy OK

Track 3 Filename F:\[MyRip]\03 - Taking A Chance On Love.wav

Pre-gap length 0:00:01.33

Peak level 100.0 % Track quality 99.9 % Test CRC ADC70F5C Copy CRC ADC70F5C Copy OK

Track 4 Filename F:\[MyRip]\04 - Bill.wav

Pre-gap length 0:00:01.04

Peak level 100.0 % Track quality 100.0 % Test CRC BA89264C Copy CRC BA89264C Copy OK

Track 5 Filename F:\[MyRip]\05 - I Won't Dance.wav

Pre-gap length 0:00:00.73

Peak level 100.0 % Track quality 100.0 % Test CRC 0E4F63D2 Copy CRC 0E4F63D2 Copy OK

Track 6 Filename F:\[MyRip]\06 - Too Late Now.wav

Pre-gap length 0:00:01.16

Peak level 100.0 % Track quality 100.0 % Test CRC 0CB1CFCA Copy CRC 0CB1CFCA Copy OK

Track 7 Filename F:\[MyRip]\07 - Why Can't You Behave .wav

Pre-gap length 0:00:01.08

Peak level 100.0 % Track quality 100.0 % Test CRC 52323109 Copy CRC 52323109 Copy OK

Track 8 Filename F:\[MyRip]\08 - Do I Love You .wav

Pre-gap length 0:00:01.45

Peak level 100.0 % Track quality 100.0 % Test CRC 1997D46D Copy CRC 1997D46D Copy OK

Track 9 Filename F:\[MyRip]\09 - Love Me Or Leave Me.wav

Pre-gap length 0:00:00.60

Peak level 100.0 % Track quality 100.0 % Test CRC F72EB882 Copy CRC F72EB882 Copy OK

Track 10 Filename F:\[MyRip]\10 - Embraceable You.wav

Pre-gap length 0:00:01.09

Peak level 96.1 % Track quality 99.9 % Test CRC 1D7F164B Copy CRC 1D7F164B Copy OK

Track 11 Filename F:\[MyRip]\11 - Dancing In The Dark.wav

Pre-gap length 0:00:00.74

Peak level 100.0 % Track quality 100.0 % Test CRC 89A691D2 Copy CRC 89A691D2 Copy OK

Track 12 Filename F:\[MyRip]\12 - Over The Rainbow.wav

Pre-gap length 0:00:02.52

Peak level 100.0 % Track quality 100.0 % Test CRC E5D1FD4D Copy CRC E5D1FD4D Copy OK

No errors occured

End of status report
 
REM GENRE JazzREM DATE 2004REM DISCID 960C200CREM COMMENT "ExactAudioCopy v0.95b3"PERFORMER "Jane Monheit"TITLE "Taking A Chance On Love"FILE "01 - Honeysuckle Rose.wav" WAVE TRACK 01 AUDIO TITLE "Honeysuckle Rose" PERFORMER "Jane Monheit" INDEX 01 00:00:00 TRACK 02 AUDIO TITLE "In The Still Of The Night" PERFORMER "Jane Monheit" INDEX 00 03:37:29FILE "02 - In The Still Of The Night.wav" WAVE INDEX 01 00:00:00 TRACK 03 AUDIO TITLE "Taking A Chance On Love" PERFORMER "Jane Monheit" INDEX 00 05:05:29FILE "03 - Taking A Chance On Love.wav" WAVE INDEX 01 00:00:00 TRACK 04 AUDIO TITLE "Bill" PERFORMER "Jane Monheit" INDEX 00 03:18:37FILE "04 - Bill.wav" WAVE INDEX 01 00:00:00 TRACK 05 AUDIO TITLE "I Won't Dance" PERFORMER "Jane Monheit" INDEX 00 05:15:46FILE "05 - I Won't Dance.wav" WAVE INDEX 01 00:00:00 TRACK 06 AUDIO TITLE "Too Late Now" PERFORMER "Jane Monheit" INDEX 00 03:35:01FILE "06 - Too Late Now.wav" WAVE INDEX 01 00:00:00 TRACK 07 AUDIO TITLE "Why Can't You Behave?" PERFORMER "Jane Monheit" INDEX 00 05:20:44FILE "07 - Why Can't You Behave .wav" WAVE INDEX 01 00:00:00 TRACK 08 AUDIO TITLE "Do I Love You?" PERFORMER "Jane Monheit" INDEX 00 04:07:10FILE "08 - Do I Love You .wav" WAVE INDEX 01 00:00:00 TRACK 09 AUDIO TITLE "Love Me Or Leave Me" PERFORMER "Jane Monheit" INDEX 00 04:52:21FILE "09 - Love Me Or Leave Me.wav" WAVE INDEX 01 00:00:00 TRACK 10 AUDIO TITLE "Embraceable You" PERFORMER "Jane Monheit" INDEX 00 03:33:68FILE "10 - Embraceable You.wav" WAVE INDEX 01 00:00:00 TRACK 11 AUDIO TITLE "Dancing In The Dark" PERFORMER "Jane Monheit" INDEX 00 03:46:61FILE "11 - Dancing In The Dark.wav" WAVE INDEX 01 00:00:00 TRACK 12 AUDIO TITLE "Over The Rainbow" PERFORMER "Jane Monheit" INDEX 00 05:03:66FILE "12 - Over The Rainbow.wav" WAVE INDEX 01 00:00:00
 
[CUETools log; Date: 06.08.2010 20:51:54; Version: 2.0.9][CTDB TOCID: gSgq8Oee9rOMqGiWzMP7DRghcmc-] disk not present in database.[AccurateRip ID: 001716b7-00d81ac6-960c200c] found.Track [ CRC ] Status 01 [ca368b22] (71/71) Accurately ripped 02 [0311b3ba] (71/71) Accurately ripped 03 [66ab3390] (71/71) Accurately ripped 04 [6311d4f1] (68/68) Accurately ripped 05 [c471fb25] (70/70) Accurately ripped 06 [388a1f0f] (69/69) Accurately ripped 07 [f0111aaf] (70/70) Accurately ripped 08 [351c727e] (71/71) Accurately ripped 09 [0e4fcd9f] (71/71) Accurately ripped 10 [bb23ee23] (69/69) Accurately ripped 11 [38bc57ed] (68/68) Accurately ripped 12 [c83a49ce] (68/68) Accurately ripped

Track Peak [ CRC32 ] [W/O NULL] [ LOG ] -- 100,0 [D5F5017E] [CC07B674] 01 100,0 [E1732C71] [C7166AB5] CRC32 02 100,0 [BAD95EE8] [1E20808C] CRC32 03 100,0 [ADC70F5C] [7B0D0451] CRC32 04 100,0 [BA89264C] [30795B5F] CRC32 05 100,0 [0E4F63D2] [A23DE23D] CRC32 06 100,0 [0CB1CFCA] [F6E0A869] CRC32 07 100,0 [52323109] [3D081DA5] CRC32 08 100,0 [1997D46D] [BCB00834] CRC32 09 100,0 [F72EB882] [223D89CE] CRC32 10 96,1 [1D7F164B] [94E400BC] CRC32 11 100,0 [89A691D2] [F36D377E] CRC32 12 100,0 [E5D1FD4D] [177E91B5] CRC32


Диск взят с другого трекера
Год выпуска альбома и диска: 2005
Производитель диска: Epic Records / Sony BMG Music (EN-94897)
Аудио кодек: FLAC
Тип рипа: image+.cue
Битрейт аудио: lossless
Продолжительность: 00:41:25

DVD-часть можно скачать здесь

Треклист:
01. This Christmas
02. Merry Christmas Darling
03. The Man With The Bag
04. Moonlight In Vermont
05. Sleighride
06. Have Yourself A Merry Little Christmas
07. I Love The Winter Weather/ I've Got My Love To Keep Me Warm
08. The Christmas Waltz
09. I Heard The Bells on Christmas Day
10. Santa Claus Is Coming To Town
11. My Grown-Up Christmas List

Personnel:
Jane Monheit - (vocals)
Miles Okazaki - (guitar)
Andy Snitzer, Charlie Piloow - (tenor saxophone)
Roger Rosenberg - (baritone saxophone)
Tony Kadleck - (trumpet, flugelhorn)
Birch Johnson - (trombone)
Michael Kanan - (piano, keyboards)
Orlando Le Fleming - (bass guitar)
Rick Montalbano - (drums)
 
EAC extraction logfile from 10. August 2010, 14:05 for CDJane Monheit / The Season

Used drive : SONY DVD-ROM DDU1615 Adapter: 0 ID: 0Read mode : Secure with NO C2, accurate stream, disable cacheRead offset correction : 6Overread into Lead-In and Lead-Out : No

Used output format : E:\Musik und Kunst\prog\setup\flac.exe (User Defined Encoder) 128 kBit/s Additional command line options : -8 -V %s

Other options : Fill up missing offset samples with silence : Yes Delete leading and trailing silent blocks : No Native Win32 interface for Win NT & 2000

Range status and errorsSelected range Filename C:\My Music\rfccbh\Jane Monheit - The Season.flac.wav

Peak level 99.7 % Range quality 100.0 % CRC 074454BB Copy OK

No errors occured

End of status report
 
REM GENRE VocalREM DATE 2005REM DISCID 7E09B50BREM COMMENT "ExactAudioCopy v0.95b3"PERFORMER "Jane Monheit"TITLE "The Season"FILE "Jane Monheit - The Season.flac" WAVE TRACK 01 AUDIO TITLE "This Christmas" PERFORMER "Jane Monheit" INDEX 01 00:00:00 TRACK 02 AUDIO TITLE "Merry Christmas Darling" PERFORMER "Jane Monheit" INDEX 01 03:50:68 TRACK 03 AUDIO TITLE "The Man With The Bag" PERFORMER "Jane Monheit" INDEX 01 08:26:46 TRACK 04 AUDIO TITLE "Moonlight In Vermont" PERFORMER "Jane Monheit" INDEX 00 10:28:58 INDEX 01 10:29:40 TRACK 05 AUDIO TITLE "Sleighride" PERFORMER "Jane Monheit" INDEX 00 15:30:09 INDEX 01 15:30:66 TRACK 06 AUDIO TITLE "Have Yourself A Merry Little Christmas" PERFORMER "Jane Monheit" INDEX 00 18:17:37 INDEX 01 18:18:19 TRACK 07 AUDIO TITLE "I Love The Winter Weather/ I've Got My Love To Keep Me Warm" PERFORMER "Jane Monheit" INDEX 00 24:16:31 INDEX 01 24:17:13 TRACK 08 AUDIO TITLE "The Christmas Waltz" PERFORMER "Jane Monheit" INDEX 00 27:56:07 INDEX 01 27:56:64 TRACK 09 AUDIO TITLE "I Heard The Bells on Christmas Day" PERFORMER "Jane Monheit" INDEX 00 30:47:64 INDEX 01 30:48:46 TRACK 10 AUDIO TITLE "Santa Claus Is Coming To Town" PERFORMER "Jane Monheit" INDEX 00 33:31:26 INDEX 01 33:32:08 TRACK 11 AUDIO TITLE "My Grown-Up Christmas List" PERFORMER "Jane Monheit" INDEX 00 36:22:24 INDEX 01 36:23:06
 
[CUETools log; Date: 15.09.2010 10:08:24; Version: 2.0.9][CTDB TOCID: GLifO9KjspfpmqYtrkP3Fj0L.CI-] disk not present in database.[AccurateRip ID: 00113bd7-0094b7e2-7e09b50b] found.Track [ CRC ] Status 01 [12d8dda2] (09/15) Accurately ripped 02 [1ea74794] (09/13) Accurately ripped 03 [b97710c7] (09/13) Accurately ripped 04 [bb6a9d25] (08/12) Accurately ripped 05 [12ec46f7] (09/13) Accurately ripped 06 [49cd94ed] (09/13) Accurately ripped 07 [c144daf0] (09/13) Accurately ripped 08 [a846ac64] (09/13) Accurately ripped 09 [d052dedb] (09/13) Accurately ripped 10 [0832c048] (09/13) Accurately ripped 11 [145d3540] (09/13) Accurately rippedOffsetted by -668: 01 [9b7bca52] (02/15) Accurately ripped 02 [b0f579e4] (02/13) Accurately ripped 03 [91ae8fb7] (02/13) Accurately ripped 04 [d16cfc51] (02/12) Accurately ripped 05 [c57b2087] (02/13) Accurately ripped 06 [df0df9ed] (02/13) Accurately ripped 07 [e68fbf88] (02/13) Accurately ripped 08 [5b1db3dc] (02/13) Accurately ripped 09 [dbcb527f] (02/13) Accurately ripped 10 [a9b9dab8] (02/13) Accurately ripped 11 [7ec554f4] (02/13) Accurately rippedOffsetted by -658: 01 [4cca98ca] (02/15) Accurately ripped 02 [2aefb4ec] (02/13) Accurately ripped 03 [847b24cf] (02/13) Accurately ripped 04 [256859ef] (02/12) Accurately ripped 05 [1f8ceaaf] (02/13) Accurately ripped 06 [0ddfca6d] (02/13) Accurately ripped 07 [7dc38364] (02/13) Accurately ripped 08 [7f875268] (02/13) Accurately ripped 09 [3f436329] (02/13) Accurately ripped 10 [554bc290] (02/13) Accurately ripped 11 [6a042806] (02/13) Accurately rippedOffsetted by -1310: 01 [5785363a] (02/15) Accurately ripped 02 [b39b127c] (00/13) No match 03 [7ac6c57f] (00/13) No match 04 [c1c9b54b] (00/12) No match 05 [fbd1d47f] (00/13) No match 06 [546fe36d] (00/13) No match 07 [61c7a15c] (00/13) No match 08 [063a8ac0] (00/13) No match 09 [e9e257dd] (00/13) No match 10 [3c891cc0] (00/13) No match 11 [b337330a] (00/13) No match

Track Peak [ CRC32 ] [W/O NULL] [ LOG ] -- 99,7 [074454BB] [4C31109D] CRC32 01 99,7 [3A8BEE64] [4FFAE5FC] 02 98,6 [BE82AC5C] [C378762F] 03 99,7 [7556309A] [485657D6] 04 99,7 [A5467F76] [16897ED9] 05 99,7 [CD1A8581] [3A199A18] 06 98,8 [916588FB] [B807DED5] 07 99,7 [46A95067] [823C6A1A] 08 99,7 [B812F46A] [71BDDB49] 09 98,3 [0D478099] [AA750CD7] 10 98,6 [AFF453D9] [E1E78217] 11 98,1 [0C765A9E] [30AB0816]


Диск взят с нашего трекера. Спасибо rfccbh
Год выпуска альбома и диска: 2005
Производитель диска: Warlock Records / N-Coded Music (NC-4255-2)
Аудио кодек: FLAC
Тип рипа: tracks+.cue
Битрейт аудио: lossless
Продолжительность: 01:08:19

Треклист:
01. Intro
02. Just Squeeze Me
03. Save Your Love For Me
04. Hit The Road To Dreamland
05. In The Still Of The Night
06. Spring Can Really Hang You Up The Most
07. I Wish You Love
08. Cheek To Cheek
09. Waters Of March
10. Dindi
11. The Folks Who Live On The Hill
12. Some Other Time
13. Love Me Or Leave Me
14. Never Never Land
15. Over The Rainbow

Personnel:
Jane Monheit - (vocals)
Michael Kanan - (piano)
Christian McBride, Ron Carter - (bass instrument)
David "Fathead" Newman - (flute, tenor saxophone)
Donald Harrison, Hank Crawford - (alto saxophone)
Joel Frahm - (tenor saxophone)
Tom Harrell - (trumpet)
Kenny Barron - (piano)
Gregory Hutchinson, Kenny Washington, Lewis Nash, Rick Montalbano - (drums)
 
Exact Audio Copy V0.99 prebeta 4 from 23. January 2008

EAC extraction logfile from 30. March 2009, 12:20

Jane Monheit / The Very Best of Jane Monheit

Used drive : HL-DT-STDVD-RAM GH22LS30 Adapter: 1 ID: 1

Read mode : SecureUtilize accurate stream : YesDefeat audio cache : YesMake use of C2 pointers : No

Read offset correction : 102Overread into Lead-In and Lead-Out : NoFill up missing offset samples with silence : YesDelete leading and trailing silent blocks : NoNull samples used in CRC calculations : YesUsed interface : Native Win32 interface for Win NT & 2000Gap handling : Appended to previous track

Used output format : User Defined EncoderSelected bitrate : 128 kBit/sQuality : HighAdd ID3 tag : NoCommand line compressor : C:\Program Files\Exact Audio Copy\Flac\flac.exeAdditional command line options : -8 -V -T "ARTIST=%a" -T "TITLE=%t" -T "ALBUM=%g" -T "DATE=%y" -T "TRACKNUMBER=%n" -T "GENRE=%m" -T "COMMENT=EAC FLAC -8" %s

TOC of the extracted CD

Track | Start | Length | Start sector | End sector --------------------------------------------------------- 1 | 0:00.00 | 0:06.03 | 0 | 452 2 | 0:06.03 | 4:02.50 | 453 | 18652 3 | 4:08.53 | 5:23.30 | 18653 | 42907 4 | 9:32.08 | 4:06.57 | 42908 | 61414 5 | 13:38.65 | 5:06.58 | 61415 | 84422 6 | 18:45.48 | 6:49.42 | 84423 | 115139 7 | 25:35.15 | 4:20.53 | 115140 | 134692 8 | 29:55.68 | 4:48.32 | 134693 | 156324 9 | 34:44.25 | 4:44.18 | 156325 | 177642 10 | 39:28.43 | 4:52.52 | 177643 | 199594 11 | 44:21.20 | 4:32.10 | 199595 | 220004 12 | 48:53.30 | 5:09.65 | 220005 | 243244 13 | 54:03.20 | 3:34.13 | 243245 | 259307 14 | 57:37.33 | 4:02.25 | 259308 | 277482 15 | 61:39.58 | 6:39.25 | 277483 | 307432

Track 1

Filename F:\Music\Pops\Best Album\The Very Best of Jane Monheit\01 - Intro.wav

Pre-gap length 0:00:02.00

Peak level 68.7 % Track quality 100.0 % Test CRC 815526AD Copy CRC 815526AD Copy OK

Track 2

Filename F:\Music\Pops\Best Album\The Very Best of Jane Monheit\02 - Just Squeeze Me.wav

Pre-gap length 0:00:01.32

Peak level 89.6 % Track quality 100.0 % Test CRC 609BD5A7 Copy CRC 609BD5A7 Copy OK

Track 3

Filename F:\Music\Pops\Best Album\The Very Best of Jane Monheit\03 - Save Your Love for Me.wav

Pre-gap length 0:00:01.57

Peak level 94.3 % Track quality 99.9 % Test CRC 2A2736D0 Copy CRC 2A2736D0 Copy OK

Track 4

Filename F:\Music\Pops\Best Album\The Very Best of Jane Monheit\04 - Hit the Road to Dreamland.wav

Pre-gap length 0:00:02.22

Peak level 99.8 % Track quality 100.0 % Test CRC 6DA95CD5 Copy CRC 6DA95CD5 Copy OK

Track 5

Filename F:\Music\Pops\Best Album\The Very Best of Jane Monheit\05 - In the Still of the Night.wav

Pre-gap length 0:00:01.19

Peak level 94.4 % Track quality 100.0 % Test CRC 372C4925 Copy CRC 372C4925 Copy OK

Track 6

Filename F:\Music\Pops\Best Album\The Very Best of Jane Monheit\06 - Spring Can Really Hang You Up the Most.wav

Pre-gap length 0:00:01.04

Peak level 87.3 % Track quality 100.0 % Test CRC 6D76B37E Copy CRC 6D76B37E Copy OK

Track 7

Filename F:\Music\Pops\Best Album\The Very Best of Jane Monheit\07 - I Wish You Love.wav

Pre-gap length 0:00:01.71

Peak level 99.8 % Track quality 100.0 % Test CRC 339DF067 Copy CRC 339DF067 Copy OK

Track 8

Filename F:\Music\Pops\Best Album\The Very Best of Jane Monheit\08 - Cheek to Cheek.wav

Peak level 84.1 % Track quality 100.0 % Test CRC AC88896F Copy CRC AC88896F Copy OK

Track 9

Filename F:\Music\Pops\Best Album\The Very Best of Jane Monheit\09 - Waters of March.wav

Pre-gap length 0:00:01.04

Peak level 98.0 % Track quality 99.9 % Test CRC DA3E0B6B Copy CRC DA3E0B6B Copy OK

Track 10

Filename F:\Music\Pops\Best Album\The Very Best of Jane Monheit\10 - Dindi.wav

Pre-gap length 0:00:02.64

Peak level 99.8 % Track quality 100.0 % Test CRC 45AE33CD Copy CRC 45AE33CD Copy OK

Track 11

Filename F:\Music\Pops\Best Album\The Very Best of Jane Monheit\11 - The Folks Who Live on the Hill.wav

Pre-gap length 0:00:00.74

Peak level 99.8 % Track quality 100.0 % Test CRC 76A664B5 Copy CRC 76A664B5 Copy OK

Track 12

Filename F:\Music\Pops\Best Album\The Very Best of Jane Monheit\12 - Some Other Time.wav

Peak level 89.1 % Track quality 100.0 % Test CRC 69D3B4E5 Copy CRC 69D3B4E5 Copy OK

Track 13

Filename F:\Music\Pops\Best Album\The Very Best of Jane Monheit\13 - Love Me or Leave Me.wav

Pre-gap length 0:00:03.51

Peak level 100.0 % Track quality 99.9 % Test CRC 0300223E Copy CRC 0300223E Copy OK

Track 14

Filename F:\Music\Pops\Best Album\The Very Best of Jane Monheit\14 - Never Never Land.wav

Pre-gap length 0:00:00.24

Peak level 99.8 % Track quality 100.0 % Test CRC B968EA9F Copy CRC B968EA9F Copy OK

Track 15

Filename F:\Music\Pops\Best Album\The Very Best of Jane Monheit\15 - Over the Rainbow.wav

Pre-gap length 0:00:05.14

Peak level 85.1 % Track quality 100.0 % Test CRC DE09E5F6 Copy CRC DE09E5F6 Copy OK

No errors occurred

End of status report
 
REM GENRE JazzREM DATE 2005REM DISCID CC10030FREM COMMENT "ExactAudioCopy v0.99pb4"PERFORMER "Jane Monheit"TITLE "The Very Best of Jane Monheit"FILE "01 - Intro.wav" WAVE TRACK 01 AUDIO TITLE "Intro" PERFORMER "Jane Monheit" INDEX 01 00:00:00 TRACK 02 AUDIO TITLE "Just Squeeze Me" PERFORMER "Jane Monheit" INDEX 00 00:04:46FILE "02 - Just Squeeze Me.wav" WAVE INDEX 01 00:00:00 TRACK 03 AUDIO TITLE "Save Your Love for Me" PERFORMER "Jane Monheit" INDEX 00 04:00:68FILE "03 - Save Your Love for Me.wav" WAVE INDEX 01 00:00:00 TRACK 04 AUDIO TITLE "Hit the Road to Dreamland" PERFORMER "Jane Monheit" INDEX 00 05:21:08FILE "04 - Hit the Road to Dreamland.wav" WAVE INDEX 01 00:00:00 TRACK 05 AUDIO TITLE "In the Still of the Night" PERFORMER "Jane Monheit" INDEX 00 04:05:38FILE "05 - In the Still of the Night.wav" WAVE INDEX 01 00:00:00 TRACK 06 AUDIO TITLE "Spring Can Really Hang You Up the Most" PERFORMER "Jane Monheit" INDEX 00 05:05:54FILE "06 - Spring Can Really Hang You Up the Most.wav" WAVE INDEX 01 00:00:00 TRACK 07 AUDIO TITLE "I Wish You Love" PERFORMER "Jane Monheit" INDEX 00 06:47:46FILE "07 - I Wish You Love.wav" WAVE INDEX 01 00:00:00FILE "08 - Cheek to Cheek.wav" WAVE TRACK 08 AUDIO TITLE "Cheek to Cheek" PERFORMER "Jane Monheit" INDEX 01 00:00:00 TRACK 09 AUDIO TITLE "Waters of March" PERFORMER "Jane Monheit" INDEX 00 04:47:28FILE "09 - Waters of March.wav" WAVE INDEX 01 00:00:00 TRACK 10 AUDIO TITLE "Dindi" PERFORMER "Jane Monheit" INDEX 00 04:41:29FILE "10 - Dindi.wav" WAVE INDEX 01 00:00:00 TRACK 11 AUDIO TITLE "The Folks Who Live on the Hill" PERFORMER "Jane Monheit" INDEX 00 04:51:53FILE "11 - The Folks Who Live on the Hill.wav" WAVE INDEX 01 00:00:00FILE "12 - Some Other Time.wav" WAVE TRACK 12 AUDIO TITLE "Some Other Time" PERFORMER "Jane Monheit" INDEX 01 00:00:00 TRACK 13 AUDIO TITLE "Love Me or Leave Me" PERFORMER "Jane Monheit" INDEX 00 05:06:14FILE "13 - Love Me or Leave Me.wav" WAVE INDEX 01 00:00:00 TRACK 14 AUDIO TITLE "Never Never Land" PERFORMER "Jane Monheit" INDEX 00 03:33:64FILE "14 - Never Never Land.wav" WAVE INDEX 01 00:00:00 TRACK 15 AUDIO TITLE "Over the Rainbow" PERFORMER "Jane Monheit" INDEX 00 03:57:11FILE "15 - Over the Rainbow.wav" WAVE INDEX 01 00:00:00
Диск взят с другого трекера. Спасибо willfully
Год выпуска альбома и диска: 2007
Производитель диска: Concord Records (CCD-30309)
Аудио кодек: FLAC
Тип рипа: tracks+.cue
Битрейт аудио: lossless
Продолжительность: 00:49:54

Треклист:
01. If You Went Away
02. Surrender
03. Rio De Malo
04. Like A Lover
05. So Tinha De Ser Com Voce
06. So Many Stars
07. Moon River
08. Overjoyed
09. Caminhos Cruzados
10. A Time For Love
Bonus track:
11. Alfie

Personnel:
Jane Monheit - (vocals)
Michael Kanan - (piano and Rhodes)
Miles Okazak - (electric and accoustic guitars)
Ari Ambrose - (saxophone)
Orlando LeFleming - (bass)
Rick Montalbano - (drums)
Jorge Calandrelli - (synthesizers (2, 3, 8) )
Peter Wolf - (orchestral arrangements and synthesizers (6) )
Paulinho DaCosta - (percussion (1-5, 8, 9) )
Ramon Stagnaro - (guitar (3) )
Dave Carpenter - (bass (3) )
Alphonso Johnson - (bass (6) )
Mike Shapiro - (drums and percussion (6) )
Toots Thielemans - (harmonica (9) )
Ivan Lins - (vocals and Yamaha S-90 keyboard (3) )
Sergio Mendes - (piano (6) )
 
EAC extraction logfile from 1. May 2007, 10:11 for CDJane Monheit / Surrender

Used drive : TSSTcorpCD/DVDW SH-S182M Adapter: 2 ID: 0Read mode : Secure with NO C2, accurate stream, disable cacheRead offset correction : 6Overread into Lead-In and Lead-Out : No

Used output format : C:\EAC\flac-1.1.2-win\bin\flac.exe (User Defined Encoder) 320 kBit/s Additional command line options : -V -8 -T "artist=%a" -T "title=%t" -T "album=%g" -T "date=%y" -T "tracknumber=%n" -T "genre=%m" %s

Other options : Fill up missing offset samples with silence : Yes Delete leading and trailing silent blocks : No Installed external ASPI interface

Track 1 Filename E:\Jane Monheit - Surrender (2007) [FLAC]\01 - If You Went Away.wav

Pre-gap length 0:00:02.00

Peak level 87.9 % Track quality 100.0 % Test CRC 05730064 Copy CRC 05730064 Copy OK

Track 2 Filename E:\Jane Monheit - Surrender (2007) [FLAC]\02 - Surrender.wav

Pre-gap length 0:00:02.06

Peak level 98.6 % Track quality 100.0 % Test CRC 3529D9A8 Copy CRC 3529D9A8 Copy OK

Track 3 Filename E:\Jane Monheit - Surrender (2007) [FLAC]\03 - Rio De Malo.wav

Pre-gap length 0:00:02.08

Peak level 98.5 % Track quality 100.0 % Test CRC 0EB16EEC Copy CRC 0EB16EEC Copy OK

Track 4 Filename E:\Jane Monheit - Surrender (2007) [FLAC]\04 - Like A Lover.wav

Pre-gap length 0:00:00.80

Peak level 98.6 % Track quality 100.0 % Test CRC 30BBDAA9 Copy CRC 30BBDAA9 Copy OK

Track 5 Filename E:\Jane Monheit - Surrender (2007) [FLAC]\05 - So Tinha De Ser Com Voce.wav

Pre-gap length 0:00:01.76

Peak level 98.6 % Track quality 100.0 % Test CRC C0FD5D3E Copy CRC C0FD5D3E Copy OK

Track 6 Filename E:\Jane Monheit - Surrender (2007) [FLAC]\06 - So Many Stars.wav

Pre-gap length 0:00:02.06

Peak level 98.5 % Track quality 99.9 % Test CRC B7ECC185 Copy CRC B7ECC185 Copy OK

Track 7 Filename E:\Jane Monheit - Surrender (2007) [FLAC]\07 - Moon River.wav

Pre-gap length 0:00:01.04

Peak level 98.6 % Track quality 100.0 % Test CRC ABA9104F Copy CRC ABA9104F Copy OK

Track 8 Filename E:\Jane Monheit - Surrender (2007) [FLAC]\08 - Overjoyed.wav

Pre-gap length 0:00:02.38

Peak level 98.5 % Track quality 100.0 % Test CRC F7EC1855 Copy CRC F7EC1855 Copy OK

Track 9 Filename E:\Jane Monheit - Surrender (2007) [FLAC]\09 - Caminhos Cruzados.wav

Pre-gap length 0:00:01.52

Peak level 98.6 % Track quality 100.0 % Test CRC 949F58EB Copy CRC 949F58EB Copy OK

Track 10 Filename E:\Jane Monheit - Surrender (2007) [FLAC]\10 - A Time For Love.wav

Pre-gap length 0:00:01.66

Peak level 87.9 % Track quality 100.0 % Test CRC B48E2759 Copy CRC B48E2759 Copy OK

Track 11 Filename E:\Jane Monheit - Surrender (2007) [FLAC]\11 - Alfie (Bonus Track).wav

Pre-gap length 0:00:01.60

Peak level 94.1 % Track quality 100.0 % Test CRC 84C40B18 Copy CRC 84C40B18 Copy OK

No errors occured

End of status report
 
REM GENRE JazzREM DATE 2007REM DISCID A80BB20BREM COMMENT "ExactAudioCopy v0.95b3"PERFORMER "Jane Monheit"TITLE "Surrender"FILE "01 - If You Went Away.wav" WAVE TRACK 01 AUDIO TITLE "If You Went Away" PERFORMER "Jane Monheit" INDEX 01 00:00:00 TRACK 02 AUDIO TITLE "Surrender" PERFORMER "Jane Monheit" INDEX 00 03:54:57FILE "02 - Surrender.wav" WAVE INDEX 01 00:00:00 TRACK 03 AUDIO TITLE "Rio De Malo" PERFORMER "Jane Monheit" INDEX 00 04:10:08FILE "03 - Rio De Malo.wav" WAVE INDEX 01 00:00:00 TRACK 04 AUDIO TITLE "Like A Lover" PERFORMER "Jane Monheit" INDEX 00 04:16:03FILE "04 - Like A Lover.wav" WAVE INDEX 01 00:00:00 TRACK 05 AUDIO TITLE "So Tinha De Ser Com Voce" PERFORMER "Jane Monheit" INDEX 00 05:30:28FILE "05 - So Tinha De Ser Com Voce.wav" WAVE INDEX 01 00:00:00 TRACK 06 AUDIO TITLE "So Many Stars" PERFORMER "Jane Monheit" INDEX 00 04:41:41FILE "06 - So Many Stars.wav" WAVE INDEX 01 00:00:00 TRACK 07 AUDIO TITLE "Moon River" PERFORMER "Jane Monheit" INDEX 00 04:10:48FILE "07 - Moon River.wav" WAVE INDEX 01 00:00:00 TRACK 08 AUDIO TITLE "Overjoyed" PERFORMER "Jane Monheit" INDEX 00 04:41:41FILE "08 - Overjoyed.wav" WAVE INDEX 01 00:00:00 TRACK 09 AUDIO TITLE "Caminhos Cruzados" PERFORMER "Jane Monheit" INDEX 00 05:45:02FILE "09 - Caminhos Cruzados.wav" WAVE INDEX 01 00:00:00 TRACK 10 AUDIO TITLE "A Time For Love" PERFORMER "Jane Monheit" INDEX 00 04:58:21FILE "10 - A Time For Love.wav" WAVE INDEX 01 00:00:00 TRACK 11 AUDIO TITLE "Alfie (Bonus Track)" PERFORMER "Jane Monheit" INDEX 00 05:01:24FILE "11 - Alfie (Bonus Track).wav" WAVE INDEX 01 00:00:00
 
[CUETools log; Date: 06.08.2010 21:01:56; Version: 2.0.9][CTDB TOCID: xBdmBNezmbkH5njFzlYigmMIZ2c-] disk not present in database.[AccurateRip ID: 0014a83a-00b4a047-a80bb20b] found.Track [ CRC ] Status 01 [62f584de] (08/11) Accurately ripped 02 [b44c1089] (08/11) Accurately ripped 03 [171dc2bf] (08/11) Accurately ripped 04 [5c4bcc04] (08/11) Accurately ripped 05 [ee86a062] (08/11) Accurately ripped 06 [4323e4b7] (08/11) Accurately ripped 07 [c4e0364a] (08/11) Accurately ripped 08 [d2d2216f] (08/11) Accurately ripped 09 [8d5b2e94] (08/11) Accurately ripped 10 [1b03f948] (08/11) Accurately ripped 11 [4cf58ade] (08/11) Accurately ripped

Track Peak [ CRC32 ] [W/O NULL] [ LOG ] -- 98,6 [AF5BC77D] [9EB2279A] 01 87,9 [05730064] [AC6F0CEC] CRC32 02 98,6 [3529D9A8] [A6819ECD] CRC32 03 98,5 [0EB16EEC] [851D7E6A] CRC32 04 98,6 [30BBDAA9] [E3A08C0C] CRC32 05 98,6 [C0FD5D3E] [403D42D2] CRC32 06 98,5 [B7ECC185] [E7FBEEEC] CRC32 07 98,6 [ABA9104F] [449EA72E] CRC32 08 98,5 [F7EC1855] [3EF4C9D8] CRC32 09 98,6 [949F58EB] [4FC411AF] CRC32 10 87,9 [B48E2759] [7DAB1C3B] CRC32 11 94,1 [84C40B18] [F1DB6F25] CRC32


Диск взят с другого трекера
Год выпуска альбома и диска: 2009
Производитель диска: Concord Records (CRE-31197-02)
Аудио кодек: FLAC
Тип рипа: tracks+.cue
Битрейт аудио: lossless
Продолжительность: 01:03:12

Треклист:
01. Like A Star
02. Something Cool
03. Slow Like Honey
04. This Girl's In Love With You
05. I'm Glad There Is You
06. Get Out of Town
07. I Do It For Your Love
08. I Ain't Gonna Let You Break My Heart
09. Ballad of the Sad Young Men
10. No Tommorrow
11. Lucky To Be Me
12. A Primeira Vez
13. Rainbow Connection

Personnel:
Jane Monheit - (vocals)
Peter Bernstein - (guitar)
Stefon Harris - (vibes)
Seamus Blake - (saxophone)
Frank Vignola - (guitar)
Gil Goldstein - (piano, accordion)
Romero Lubambo - (guitar)
Antonio Sanchez - (drums)
Scott Colley - (bass)
Bashiri Johnson - (percussion)
 
EAC extraction logfile from 22. January 2009, 20:01 for CDJane Monheit / The Lovers Dreamers and Me

Used drive : PIONEER DVD-RW DVR-116D Adapter: 0 ID: 0Read mode : Secure with NO C2, accurate stream, disable cacheRead offset correction : 96Overread into Lead-In and Lead-Out : No

Used output format : C:\EAC\flac-1.1.2-win\bin\flac.exe (User Defined Encoder) 320 kBit/s Additional command line options : -8 -V -T "ARTIST=%a" -T "TITLE=%t" -T "ALBUM=%g" -T "DATE=%y" -T "TRACKNUMBER=%n" -T "GENRE=%m" -T "COMMENT=EAC FLAC -8" %s

Other options : Fill up missing offset samples with silence : Yes Delete leading and trailing silent blocks : No Installed external ASPI interface

Track 1 Filename D:\Jane Monheit - The Lovers Dreamers And Me (2009) [FLAC]\01 - Like A Star.wav

Pre-gap length 0:00:02.00

Peak level 99.8 % Track quality 100.0 % Test CRC 7E2AEEEA Copy CRC 7E2AEEEA Copy OK

Track 2 Filename D:\Jane Monheit - The Lovers Dreamers And Me (2009) [FLAC]\02 - Something Cool.wav

Peak level 99.8 % Track quality 100.0 % Test CRC 924E6EC9 Copy CRC 924E6EC9 Copy OK

Track 3 Filename D:\Jane Monheit - The Lovers Dreamers And Me (2009) [FLAC]\03 - Slow Like Honey.wav

Pre-gap length 0:00:01.00

Peak level 99.8 % Track quality 99.9 % Test CRC 73530C65 Copy CRC 73530C65 Copy OK

Track 4 Filename D:\Jane Monheit - The Lovers Dreamers And Me (2009) [FLAC]\04 - This Girl's In Love With You.wav

Pre-gap length 0:00:01.00

Peak level 99.8 % Track quality 100.0 % Test CRC 99946E57 Copy CRC 99946E57 Copy OK

Track 5 Filename D:\Jane Monheit - The Lovers Dreamers And Me (2009) [FLAC]\05 - I'm Glad There Is You.wav

Peak level 99.8 % Track quality 100.0 % Test CRC 775E8B96 Copy CRC 775E8B96 Copy OK

Track 6 Filename D:\Jane Monheit - The Lovers Dreamers And Me (2009) [FLAC]\06 - Get Out of Town.wav

Peak level 99.8 % Track quality 100.0 % Test CRC D706A851 Copy CRC D706A851 Copy OK

Track 7 Filename D:\Jane Monheit - The Lovers Dreamers And Me (2009) [FLAC]\07 - I Do It For Your Love-.wav

Pre-gap length 0:00:01.00

Peak level 99.8 % Track quality 99.9 % Test CRC B17A9974 Copy CRC B17A9974 Copy OK

Track 8 Filename D:\Jane Monheit - The Lovers Dreamers And Me (2009) [FLAC]\08 - I Ain't Gonna Let You Break My Heart.wav

Peak level 99.8 % Track quality 100.0 % Test CRC 3C3B44F0 Copy CRC 3C3B44F0 Copy OK

Track 9 Filename D:\Jane Monheit - The Lovers Dreamers And Me (2009) [FLAC]\09 - Ballad of the Sad Young Men.wav

Peak level 99.8 % Track quality 100.0 % Test CRC 65DB78B5 Copy CRC 65DB78B5 Copy OK

Track 10 Filename D:\Jane Monheit - The Lovers Dreamers And Me (2009) [FLAC]\10 - No Tommorrow.wav

Peak level 99.8 % Track quality 100.0 % Test CRC D3E1BAA8 Copy CRC D3E1BAA8 Copy OK

Track 11 Filename D:\Jane Monheit - The Lovers Dreamers And Me (2009) [FLAC]\11 - Lucky To Be Me.wav

Pre-gap length 0:00:01.38

Peak level 99.8 % Track quality 100.0 % Test CRC 5BC97EA9 Copy CRC 5BC97EA9 Copy OK

Track 12 Filename D:\Jane Monheit - The Lovers Dreamers And Me (2009) [FLAC]\12 - A Primeira Vez.wav

Peak level 99.8 % Track quality 100.0 % Test CRC 698CF152 Copy CRC 698CF152 Copy OK

Track 13 Filename D:\Jane Monheit - The Lovers Dreamers And Me (2009) [FLAC]\13 - Rainbow Connection.wav

Peak level 95.4 % Track quality 99.9 % Test CRC CEE1ABAC Copy CRC CEE1ABAC Copy OK

No errors occured

End of status report
 
REM GENRE JazzREM DATE 2009REM DISCID B30ED00DREM COMMENT "ExactAudioCopy v0.95b3"PERFORMER "Jane Monheit"TITLE "The Lovers Dreamers and Me"FILE "01 - Like A Star.wav" WAVE TRACK 01 AUDIO TITLE "Like A Star" PERFORMER "Jane Monheit" INDEX 01 00:00:00FILE "02 - Something Cool.wav" WAVE TRACK 02 AUDIO TITLE "Something Cool" PERFORMER "Jane Monheit" INDEX 01 00:00:00 TRACK 03 AUDIO TITLE "Slow Like Honey" PERFORMER "Jane Monheit" INDEX 00 04:55:56FILE "03 - Slow Like Honey.wav" WAVE INDEX 01 00:00:00 TRACK 04 AUDIO TITLE "This Girl's In Love With You" PERFORMER "Jane Monheit" INDEX 00 05:56:69FILE "04 - This Girl's In Love With You.wav" WAVE INDEX 01 00:00:00FILE "05 - I'm Glad There Is You.wav" WAVE TRACK 05 AUDIO TITLE "I'm Glad There Is You" PERFORMER "Jane Monheit" INDEX 01 00:00:00FILE "06 - Get Out of Town.wav" WAVE TRACK 06 AUDIO TITLE "Get Out of Town" PERFORMER "Jane Monheit" INDEX 01 00:00:00 TRACK 07 AUDIO TITLE "I Do It For Your Love-" PERFORMER "Jane Monheit" INDEX 00 03:39:56FILE "07 - I Do It For Your Love-.wav" WAVE INDEX 01 00:00:00FILE "08 - I Ain't Gonna Let You Break My Heart.wav" WAVE TRACK 08 AUDIO TITLE "I Ain't Gonna Let You Break My Heart" PERFORMER "Jane Monheit" INDEX 01 00:00:00FILE "09 - Ballad of the Sad Young Men.wav" WAVE TRACK 09 AUDIO TITLE "Ballad of the Sad Young Men" PERFORMER "Jane Monheit" INDEX 01 00:00:00FILE "10 - No Tommorrow.wav" WAVE TRACK 10 AUDIO TITLE "No Tommorrow" PERFORMER "Jane Monheit" INDEX 01 00:00:00 TRACK 11 AUDIO TITLE "Lucky To Be Me" PERFORMER "Jane Monheit" INDEX 00 05:11:13FILE "11 - Lucky To Be Me.wav" WAVE INDEX 01 00:00:00FILE "12 - A Primeira Vez.wav" WAVE TRACK 12 AUDIO TITLE "A Primeira Vez" PERFORMER "Jane Monheit" INDEX 01 00:00:00FILE "13 - Rainbow Connection.wav" WAVE TRACK 13 AUDIO TITLE "Rainbow Connection" PERFORMER "Jane Monheit" INDEX 01 00:00:00
 
[CUETools log; Date: 06.08.2010 21:15:01; Version: 2.0.9][CTDB TOCID: tXxvWYWMRUVx2bBtD2FiGnfn4v8-] disk not present in database.[AccurateRip ID: 001f5806-0137ad99-b30ed00d] found.Track [ CRC ] Status 01 [b21540bc] (32/35) Accurately ripped 02 [b3bcc636] (32/35) Accurately ripped 03 [baf9e18a] (30/33) Accurately ripped 04 [6508a29b] (31/34) Accurately ripped 05 [145db67b] (31/34) Accurately ripped 06 [08c232d9] (31/34) Accurately ripped 07 [0301866f] (31/34) Accurately ripped 08 [73766db3] (31/34) Accurately ripped 09 [adeb5c84] (31/34) Accurately ripped 10 [fc983e6e] (31/34) Accurately ripped 11 [ef5d1d13] (30/33) Accurately ripped 12 [3b9e83be] (30/33) Accurately ripped 13 [f94fd596] (30/33) Accurately rippedOffsetted by 6: 01 [148a86c1] (00/35) No match 02 [c50dcc63] (00/35) No match 03 [313138de] (00/33) No match 04 [0f760890] (03/34) No match but offset 05 [aaf96174] (03/34) No match but offset 06 [a16b4a93] (00/34) No match 07 [cc0b311e] (00/34) No match 08 [834a9389] (00/34) No match 09 [31526097] (00/34) No match 10 [f2560491] (00/34) No match 11 [762494fb] (00/33) No match 12 [ea0dfa6f] (00/33) No match 13 [966985c0] (00/33) No match

Track Peak [ CRC32 ] [W/O NULL] [ LOG ] -- 99,8 [8D825310] [22829220] 01 99,8 [7E2AEEEA] [59442247] CRC32 02 99,8 [924E6EC9] [B71D9C16] CRC32 03 99,8 [73530C65] [996946AE] CRC32 04 99,8 [99946E57] [6AABB556] CRC32 05 99,8 [775E8B96] [12D26174] CRC32 06 99,8 [D706A851] [E06DE91D] CRC32 07 99,8 [B17A9974] [2FB733FB] CRC32 08 99,8 [3C3B44F0] [4FAEC825] CRC32 09 99,8 [65DB78B5] [67796207] CRC32 10 99,8 [D3E1BAA8] [50EC2FBE] CRC32 11 99,8 [5BC97EA9] [C8CC4BFA] CRC32 12 99,8 [698CF152] [5BA64558] CRC32 13 95,4 [CEE1ABAC] [BA1FA2F7] CRC32


Диск взят с другого трекера. Спасибо Kopelli

Биография
Джейн Монхeйт родилась 3 ноября 1977 года и выросла в Oукдейле, о. Лонг-Айленд, США. Она начала петь, лишь только научилась говорить; вся ее семья очень музыкальна: тетя и бабушка были профессиональными певицами, мать играла в музыкальном театре, отец был исполнителем на банджо, а брат Джейн – рок-гитарист. Когда она училась лишь в начальной школе, то уже тогда писала пьесы, ставила спектакли и исполняла роли в своем собственном маленьком театре для каждого, кто хотел стать ее зрителем. Девочкой она проводила бесчисленные часы, слушая джазовые записи родителей, особенно Эллу Фитцджеральд, Сару Вон, Кармен МакРа и Джони Митчелл. Они-то и оказали на нее наибольшее влияние. Непосредственно обучаться вокалу Джейн начала в 17 лет под руководством выдающегося преподавателя Питера Элдриджа, одного из основателей вокальной группы New York Voices. Ее друг по колледжу Рик Монталбано, за которого она вышла замуж в 2002 году, вывел ее на профессиональную джазовую сцену, сделав вокалисткой своего джаз-квинтета.

В 1998 году, когда Джейн было 20 лет, она по протекции Питера Элдриджа поступила в Thelonious Monk Institute Vocal Competition и закончила обучение первой из курса, став самым молодым человеком, когда-либо выдержавшим это испытание за всю историю Monk Competition. Ее дебютный альбом Never Never Land, выпущенный в октябре 2000 года, содержал композиции таких светил джаза, как Кенни Баррон, Рон Картер, Баки Пизарелли, Дэвид «Fathead» Ньюмэн, Ханк Кроуфорд и Льюис Нэш, которые обеспечили совершенную музыкальную основу для ее гладкого, шелковистого сопрано. Джейн Монхeйт сравнивали с Эллой Фитцждеральд и Дайаной Кролл, но на самом деле она прокладывает собственную дорожку к славе своей утонченной фразировкой и способностью тонко ухватить значение и суть песни.



Трекер:  [ 24-Сен-2011 22:05 ]

  

Скачать .torrent

Размер .torrent файла 34 KB


Размер: 2.5 GB
Хэш (hash) релиза: 062bb3d4452ae9bcde3ffc7bfc95e88dd41d4f86

Торренты, похожие на Jane Monheit - Коллекция скачать торрент

Форум Название Автор Размер S L Добавлен
Jazz, Blues (mp3) ·· (Jazz/Vocal Jazz/Female Vocal/Contemporary Jazz) Jane Monheit - Коллекция: 10 альбомов (2000-2009) MP3 (Tracks), CBR 320 kbps L 13622170931.27 GB 0 0 1316891222

22:07

24-Сен-11

Victorio












Спасибо, всем советую послушать эту замечательную вокалисту, исполнительницу джазовых стандартов






Хотите добавить комментарий к записи скачать торрент Jane Monheit - Коллекция

!Обратная связь