Скачать через торрент Майкл Че — Важности Michael Che — Matters Фильм бесплатно в хорошем качестве torrent

Скачивайте на UnionPeer.org фильмы через торрент без регистрации. Новинки кино в хорошем качестве через торрент. На UnionPeer.org можно скачать через торрент фильмы 2014 и 2015 годов. Самые новые фильмы.

Скачать торрент Майкл Че — Важности Michael Che — Matters бесплатно через .torrent фильм мультфильм сериал

Если у вас наблюдаются проблемы со скриншотами, переходом по ссылками, скачиванием торрентов - проблемы в блокировщике рекламы AdBlock. #хорошегоДня!


Статистика раздачи
Размер:  535 MB   |    Зарегистрирован:  26 дней   |    .torrent скачан:  25 раз   |   
Раздают:  1  
   
Загрузка...
 
Автор Сообщение

Galfimbul

avatar Galfimbul


Майкл Че — Важности / Michael Che — Matters

Год выпуска: 25.11.2016
Страна: США
Жанр: Stand up
Продолжительность: 01:00:54
Перевод: Субтитры subturtles
Оригинальная аудиодорожка: английский
Режиссер: Османи Родригез
Телеканал: Netflix

Описание: Иисус, Пушки, Черные Жизни Важны, Белые леди танцуют. Честная, бескомпромиссная комедия, где нет запрещённых тем.

Доп. информация: Первый полнометражный перевод от студии subturtles. Ценители жанра рекомендуют.

Ненормативная лексика присутствует.

качество: WEBRip
формат: MP4
Видео: MPEG4 Video (H264) 720x380 23.976fps 1095kbps
Аудио: AAC 48000Hz stereo 128kbps 2 channels
Формат субтитров: softsub (SRT)
Michael.Che.Matters.2016.WEBRip.x264-RARBG.mp4Format : MPEG-4Format profile : Base MediaCodec ID : isom (isom/iso2/avc1/mp41)File size : 535 MiBDuration : 1 h 0 minOverall bit rate : 1 229 kb/sMovie name : RARBG.COM - Michael.Che.Matters.2016.WEBRip.x264-RARBGEncoded date : UTC 2017-02-12 18:17:37Tagged date : UTC 2017-02-12 18:17:37Writing application : Lavf56.40.101Comment : RARBG.COM - Michael.Che.Matters.2016.WEBRip.x264-RARBG

VideoID : 1Format : AVCFormat/Info : Advanced Video CodecFormat profile : High@L3.1Format settings, CABAC : YesFormat settings, ReFrames : 5 framesCodec ID : avc1Codec ID/Info : Advanced Video CodingDuration : 1 h 0 minBit rate : 1 100 kb/sWidth : 720 pixelsHeight : 380 pixelsDisplay aspect ratio : 1.897Frame rate mode : ConstantFrame rate : 23.976 (24000/1001) FPSColor space : YUVChroma subsampling : 4:2:0Bit depth : 8 bitsScan type : ProgressiveBits/(Pixel*Frame) : 0.168Stream size : 477 MiB (89%)Title : RARBG.COM - Michael.Che.Matters.2016.WEBRip.x264-RARBGWriting library : x264 core 148 r2597M e86f3a1Encoding settings : cabac=1 / ref=5 / deblock=1:-1:-1 / analyse=0x3:0x113 / me=umh / subme=9 / psy=1 / psy_rd=1.00:0.15 / mixed_ref=1 / me_range=16 / chroma_me=1 / trellis=2 / 8x8dct=1 / cqm=0 / deadzone=21,11 / fast_pskip=1 / chroma_qp_offset=-3 / threads=12 / lookahead_threads=1 / sliced_threads=0 / nr=0 / decimate=1 / interlaced=0 / bluray_compat=0 / constrained_intra=0 / bframes=3 / b_pyramid=2 / b_adapt=2 / b_bias=0 / direct=3 / weightb=1 / open_gop=0 / weightp=2 / keyint=250 / keyint_min=23 / scenecut=40 / intra_refresh=0 / rc_lookahead=50 / rc=abr / mbtree=1 / bitrate=1100 / ratetol=1.0 / qcomp=0.60 / qpmin=0 / qpmax=69 / qpstep=4 / ip_ratio=1.40 / aq=1:1.00Encoded date : UTC 2017-02-12 18:17:37Tagged date : UTC 2017-02-12 18:17:37

AudioID : 2Format : AACFormat/Info : Advanced Audio CodecFormat profile : LCCodec ID : 40Duration : 1 h 0 minDuration_LastFrame : -11 msBit rate mode : ConstantBit rate : 128 kb/sChannel(s) : 2 channelsChannel positions : Front: L RSampling rate : 48.0 kHzFrame rate : 46.875 FPS (1024 spf)Compression mode : LossyStream size : 55.8 MiB (10%)Title : RARBG.COM - Michael.Che.Matters.2016.WEBRip.x264-RARBGLanguage : EnglishDefault : YesAlternate group : 1Encoded date : UTC 2017-02-12 18:17:37Tagged date : UTC 2017-02-12 18:17:37


Трекер:  [ 23-Июл-2017 05:42 ]

  

Скачать .torrent

Размер .torrent файла 11 KB


Размер: 535 MB
Хэш (hash) релиза: 9dd033aa4d8ef9e292e782e904269bfc7e9cc7cb
Подписка на обновления:

Еще никто не оставлял запись к записи скачать торрент Майкл Че — Важности Michael Che — Matters . Будь первым!

!Обратная связь