Скачать через торрент Каслвания Castlevania Фильм бесплатно в хорошем качестве torrent

Скачивайте на UnionPeer.org фильмы через торрент без регистрации. Новинки кино в хорошем качестве через торрент. На UnionPeer.org можно скачать через торрент фильмы 2014 и 2015 годов. Самые новые фильмы.

Скачать торрент Каслвания Castlevania бесплатно через .torrent фильм мультфильм сериал

Если у вас наблюдаются проблемы со скриншотами, переходом по ссылками, скачиванием торрентов - проблемы в блокировщике рекламы AdBlock. #хорошегоДня!


Статистика раздачи
Размер:  944 MB   |    Зарегистрирован:  1 месяц   |    .torrent скачан:  35 раз   |   
Раздают:  1  
   
Загрузка...
 
Автор Сообщение

Galfimbul

avatar Galfimbul


Каслвания / Castlevania
1 сезон, 1-2 серии из 4
Год выпуска: 2017
Страна: США
Жанр: Мультфильм, приключения, фэнтези, ужасы
Продолжительность: ~25 мин.
Озвучание: Профессиональное, многоголосое, закадровое (AlexFilm)Режиссер: Сэм Диц / Sam Deats
Роли озвучивали: Ричард Армитедж, Тони Амендола, Мэтт Фрюэр, Эмили Суоллоу, Джеймс Кэллис, Алехандра Рейносо, Грэм МакТавиш и др.Описание: Смелая девушка Лиза приходит прямиком в замок графа Дракулы, чтобы тот поделился с ней всеми доступными научными знаниями. У неё благородная цель — девушка хочет стать лучшим врачом и облегчить жизнь людей, но местные не оценили рвения, и уже через год Лизу сжигают на костре за колдовство. Взбешённый Дракула решает мстить за любимую — он даёт жителям города год, а затем насылает на них полчища демонов из ада.Релиз:

Перевод: Дияна Младенович
Монтаж и сведение звука: Михаил Шорыгин
Роли озвучивали:
<div style="margin-left: 2em" class="post-ul">

Екатерина Муравицкая
Алексей Никитин
Кирилл Патрино
Станислав Черсков
Константин Федосеев
Михаил Суслов

</div>
Сэмпл: http://sendfile.su/1350203 Качество: WEBRip 720p
Формат: MKV
Видео: x264, 8 bit, 1280x720, ~2600 Kbps, 23.976 fps
Аудио Rus: AC3, 48 kHz, ~384 Kbps, 5.1 ch
Аудио Eng: AC3, 48 kHz, ~384 Kbps, 5.1 ch
Субтитры: Русские, английские, в составе контейнера. <div class="sp-wrap">
<div class="sp-head folded">MediaInfo</div>
<div class="sp-body">Формат : Matroska
Версия формата : Version 4 / Version 2
Размер файла : 612 Мбайт
Продолжительность : 25 м. 4 с.
Общий поток : 3411 Кбит/сек
Название фильма : Castlevania 1x01 @ AlexFilm
Дата кодирования : UTC 2017-07-21 21:17:18
Программа кодирования : mkvmerge v7.1.0 ('Good Love') 64bit built on Jul 27 2014 13:06:55
Библиотека кодирования : libebml v1.3.0 + libmatroska v1.4.1

Видео
Идентификатор : 1
Формат : AVC
Формат/Информация : Advanced Video Codec
Профиль формата : High@L4.1
Параметр CABAC формата : Да
Параметр ReFrames формата : 5 кадров
Идентификатор кодека : V_MPEG4/ISO/AVC
Продолжительность : 25 м. 4 с.
Битрейт : 2576 Кбит/сек
Ширина : 1280 пикселей
Высота : 720 пикселей
Соотношение сторон : 16:9
Режим частоты кадров : Постоянный
Частота кадров : 23,976 (24000/1001) кадра/сек
Цветовое пространство : YUV
Субдискретизация насыщенности : 4:2:0
Битовая глубина : 8 бит
Тип развёртки : Прогрессивная
Бит/(Пиксели*Кадры) : 0.117
Размер потока : 462 Мбайт (75%)
Библиотека кодирования : x264 core 152 r2851 ba24899
Настройки программы : cabac=1 / ref=5 / deblock=1:1:1 / analyse=0x3:0x113 / me=umh / subme=8 / psy=1 / psy_rd=1.00:0.15 / mixed_ref=1 / me_range=16 / chroma_me=1 / trellis=2 / 8x8dct=1 / cqm=0 / deadzone=21,11 / fast_pskip=0 / chroma_qp_offset=-2 / threads=12 / lookahead_threads=2 / sliced_threads=0 / nr=0 / decimate=1 / interlaced=0 / bluray_compat=0 / constrained_intra=0 / bframes=3 / b_pyramid=2 / b_adapt=1 / b_bias=0 / direct=3 / weightb=1 / open_gop=0 / weightp=2 / keyint=240 / keyint_min=23 / scenecut=40 / intra_refresh=0 / rc_lookahead=50 / rc=crf / mbtree=1 / crf=18.0 / qcomp=0.60 / qpmin=0 / qpmax=69 / qpstep=4 / ip_ratio=1.40 / aq=3:0.80
Язык : English
Default : Да
Forced : Нет

Аудио #1
Идентификатор : 2
Формат : AC-3
Формат/Информация : Audio Coding 3
Расширение режима : CM (complete main)
Параметр Endianness формата : Big
Идентификатор кодека : A_AC3
Продолжительность : 25 м. 4 с.
Вид битрейта : Постоянный
Битрейт : 384 Кбит/сек
Каналы : 6 каналов
Расположение каналов : Front: L C R, Side: L R, LFE
Частота : 48,0 КГц
Частота кадров : 31,250 кадров/сек (1536 spf)
Метод сжатия : С потерями
Размер потока : 68,9 Мбайт (11%)
Заголовок : DD5.1 AlexFilm
Язык : Russian
Default : Да
Forced : Нет

Аудио #2
Идентификатор : 3
Формат : AC-3
Формат/Информация : Audio Coding 3
Расширение режима : CM (complete main)
Параметр Endianness формата : Big
Идентификатор кодека : A_AC3
Продолжительность : 25 м. 4 с.
Вид битрейта : Постоянный
Битрейт : 384 Кбит/сек
Каналы : 6 каналов
Расположение каналов : Front: L C R, Side: L R, LFE
Частота : 48,0 КГц
Частота кадров : 31,250 кадров/сек (1536 spf)
Метод сжатия : С потерями
Размер потока : 68,9 Мбайт (11%)
Заголовок : DD5.1 Original
Язык : English
Default : Нет
Forced : Нет

Текст #1
Идентификатор : 4
Формат : UTF-8
Идентификатор кодека : S_TEXT/UTF8
Идентификатор кодека/Информация : UTF-8 Plain Text
Язык : Russian
Default : Нет
Forced : Нет

Текст #2
Идентификатор : 5
Формат : UTF-8
Идентификатор кодека : S_TEXT/UTF8
Идентификатор кодека/Информация : UTF-8 Plain Text
Язык : English
Default : Нет
Forced : Нет</div>
</div>
...5428893 - другая озвучка, другое разрешение
...5427386 - перевод субтитров от другого переводчика, наличие озвучки


Трекер:  [ 22-Июл-2017 02:54 ]

  

Скачать .torrent

Размер .torrent файла 19 KB


Размер: 944 MB
Хэш (hash) релиза: f1020085845dd9a9ad099a845aadfe2854101211
Подписка на обновления:

Торренты, похожие на Каслвания Castlevania скачать торрент

Форум Название Автор Размер S L Добавлен
Мультсериалы ·· Каслвания / Castlevania / Сезон: 1 / Серии: 2 из 4 (Сэм Диц / Sam Deats) [2017, США, мультфильм, приключения, фэнтези, ужасы, WEBRip 1080p] Rus Sub Galfimbul 23353330392.17 GB 0 0 1500123513

15:58

15-Июл-17

Еще никто не оставлял запись к записи скачать торрент Каслвания Castlevania . Будь первым!

!Обратная связь