Скачать через торрент Тихоокеанская жара Pacific Heat Фильм бесплатно в хорошем качестве torrent

Скачивайте на UnionPeer.org фильмы через торрент без регистрации. Новинки кино в хорошем качестве через торрент. На UnionPeer.org можно скачать через торрент фильмы 2014 и 2015 годов. Самые новые фильмы.

Скачать торрент Тихоокеанская жара Pacific Heat бесплатно через .torrent фильм мультфильм сериал

Если у вас наблюдаются проблемы со скриншотами, переходом по ссылками, скачиванием торрентов - проблемы в блокировщике рекламы AdBlock. #хорошегоДня!


Статистика раздачи
Размер:  211 MB   |    Зарегистрирован:  2 месяца 28 дней   |    .torrent скачан:  38 раз   |   
Раздают:  1  
   
Загрузка...
 
Автор Сообщение

Galfimbul

avatar Galfimbul


Тихоокеанская жара / Pacific Heat

Страна: Австралия
Жанр: Комедия, экшен
Продолжительность серии: 00:22:40
Год выпуска: 2016
Перевод: Одноголосый закадровый NewStation
Русские субтитры: нет

Режиссёр: Санто Чилауро, Том Глайзнер,Роб Ситч / Santo Cilauro, Tom Gleisner, Rob Sitch
Роли озвучивали: Санто Чилауро, Том Глайзнер, Ребекка Мэсси / Santo Cilauro, Tom Gleisner, Rebecca Massey

Описание: Голд-Кост — пляжная столица Австралии, знаменитый рай для сёрферов, также известный благодаря самому высокому уровню преступности в стране. Неординарные и бескомпромиссные сотрудники специального отдела полиции работают под прикрытием.

Список серий:
0.1 Опасная игра / A Dangerous Game

Доп. информация: В сериале присутствует ненормативная лексика.

Семпл: http://multi-up.com/1162139

Качество: WEBRip
Формат: MKV
Видео: AVC, 1024x570, 16:9, 25,000 кадров/сек, 950 Кбит/сек
Аудио #1: [RUS] 48 kHz, MP3, 2ch, ~192 kbps
Аудио #2: [ENG] 48 kHz, AAC, 2ch, ~161 kbps
Субтитры: отсутствуют
ОбщееУникальный идентификатор : 232279531624204735202567509424933634118 (0xAEBF69194D5809429A0A04C77E230046)Полное имя : D:\NewStation\Pacific.Heat.S01.WEBRip.x264.NewStation\Pacific.Heat.S01E01.WEBRip.x264.NewStation.mkvФормат : MatroskaВерсия формата : Version 4 / Version 2Размер файла : 211 МбайтПродолжительность : 22 м. 35 с.Общий поток : 1305 Кбит/секДата кодирования : UTC 2017-07-19 22:00:17Программа кодирования : mkvmerge v12.0.0 ('Trust / Lust') 32bitБиблиотека кодирования : libebml v1.3.4 + libmatroska v1.4.5

ВидеоИдентификатор : 1Формат : AVCФормат/Информация : Advanced Video CodecПрофиль формата : Main@L4Параметр CABAC формата : ДаПараметр RefFrames формата : 4 кадраИдентификатор кодека : V_MPEG4/ISO/AVCПродолжительность : 22 м. 35 с.Битрейт : 950 Кбит/секШирина : 1024 пикселяВысота : 570 пикселейСоотношение сторон : 16:9Режим частоты кадров : ПостоянныйЧастота кадров : 25,000 кадров/секЦветовое пространство : YUVСубдискретизация насыщенности : 4:2:0Битовая глубина : 8 битТип развёртки : ПрогрессивнаяБит/(Пиксели*Кадры) : 0.065Размер потока : 153 Мбайт (73%)Библиотека кодирования : x264 core 142 r2479 dd79a61Настройки программы : cabac=1 / ref=2 / deblock=1:0:0 / analyse=0x1:0x111 / me=hex / subme=4 / psy=1 / psy_rd=1.00:0.00 / mixed_ref=0 / me_range=16 / chroma_me=1 / trellis=1 / 8x8dct=0 / cqm=0 / deadzone=21,11 / fast_pskip=1 / chroma_qp_offset=0 / threads=12 / lookahead_threads=3 / sliced_threads=0 / nr=0 / decimate=1 / interlaced=0 / bluray_compat=0 / constrained_intra=0 / bframes=3 / b_pyramid=2 / b_adapt=1 / b_bias=0 / direct=1 / weightb=1 / open_gop=0 / weightp=1 / keyint=250 / keyint_min=25 / scenecut=40 / intra_refresh=0 / rc_lookahead=20 / rc=2pass / mbtree=1 / bitrate=950 / ratetol=1.0 / qcomp=0.60 / qpmin=0 / qpmax=69 / qpstep=4 / cplxblur=20.0 / qblur=0.5 / vbv_maxrate=20000 / vbv_bufsize=25000 / nal_hrd=none / filler=0 / ip_ratio=1.40 / aq=1:1.00Default : ДаForced : НетЦветовой диапазон : LimitedОсновные цвета : BT.601 PALХарактеристики трансфера : BT.709Коэффициенты матрицы : BT.601

Аудио #1Идентификатор : 2Формат : MPEG AudioВерсия формата : Version 1Профиль формата : Layer 3Идентификатор кодека : A_MPEG/L3Идентификатор кодека/Подсказка : MP3Продолжительность : 22 м. 35 с.Вид битрейта : ПостоянныйБитрейт : 192 Кбит/секКаналы : 2 каналаЧастота : 48,0 КГцЧастота кадров : 41,667 кадра/сек (1152 SPF)Метод сжатия : С потерямиРазмер потока : 31,0 Мбайт (15%)Заголовок : Rus NewStationDefault : ДаForced : Нет

Аудио #2Идентификатор : 3Формат : AACФормат/Информация : Advanced Audio CodecПрофиль формата : LCИдентификатор кодека : A_AACПродолжительность : 22 м. 35 с.Битрейт : 161 Кбит/секКаналы : 2 каналаРасположение каналов : Front: L RЧастота : 48,0 КГцЧастота кадров : 46,875 кадров/сек (1024 SPF)Метод сжатия : С потерямиРазмер потока : 26,0 Мбайт (12%)Заголовок : OriginalЯзык : EnglishDefault : НетForced : Нет
...Pacific%20Heat
Внимание! Раздача ведётся путём добавления новых серий; при каждом добавлении создаётся новый торрент. Чтобы начать докачку новой серии, пользователям необходимо сделать следующее:
(1) остановить скачивание,
(2) удалить старый торрент у себя из клиента (старые серии удалять не надо),
(3) скачать новый торрент и запустить его у себя в клиенте вместо старого, при этом указать клиенту путь в старую папку куда и должно происходить скачивание новых серий.

Ваш клиент при этом должен произвести хеширование (проверку) старой папки (если не производит сам - помогите ему сделать это), и будет докачивать только те серии которых у вас ещё нет. Старые серии при этом не удаляются, а продолжают раздаваться!

Eсли вы уже удалили старые серии, то предотвратить повторную закачку старых серий можно, отжав галочку в соответствующих местах при запуске нового торрента. По возможности, желательно не удалять старые серии как можно дольше чтобы релизёр не столько продолжал раздавать старые серии, а смог сконцентрироваться на новых.


Трекер:  [ 20-Июл-2017 01:54 ]

  

Скачать .torrent

Размер .torrent файла 17 KB


Размер: 211 MB
Хэш (hash) релиза: 57fe48d92bca165fd787d0e8515a31df7e62729d
Подписка на обновления:

Еще никто не оставлял запись к записи скачать торрент Тихоокеанская жара Pacific Heat . Будь первым!

!Обратная связь