Скачать через торрент Код Лиоко Code Lyoko Фильм бесплатно в хорошем качестве torrent

Скачивайте на UnionPeer.org фильмы через торрент без регистрации. Новинки кино в хорошем качестве через торрент. На UnionPeer.org можно скачать через торрент фильмы 2014 и 2015 годов. Самые новые фильмы.

Скачать торрент Код Лиоко Code Lyoko бесплатно через .torrent фильм мультфильм сериал

Если у вас наблюдаются проблемы со скриншотами, переходом по ссылками, скачиванием торрентов - проблемы в блокировщике рекламы AdBlock. #хорошегоДня!


Статистика раздачи
Размер:  23.7 GB   |    Зарегистрирован:  1 месяц 3 дня   |    .torrent скачан:  28 раз   |   
Раздают:  1  
   
Загрузка...
 
Автор Сообщение

Galfimbul

avatar Galfimbul


Код Лиоко / Code Lyoko[img=right:9WkseBAo1e]
Warning: copy(http://i29.fastpic.ru/big/2012/0115/57/4804f0f77612...b2f9af83a957.jpg): failed to open stream: HTTP request failed! in /home/youpic/public_html/poster_overflow.php on line 30
http://s010.youpic.su/pictures/1500415200/ab6cbac2a.../img:9WkseBAo1e]Страна: Франция
Жанр: мультсериал, фантастика, приключения
Продолжительность: 95 серий по 23 минуты
Год выпуска: 2003-2007
Перевод: Субтитры (MrScarabus)
Русские субтитры: есть
Режиссёр: Жером Мускаде / Jérôme MouscadetОписание: Code Lyoko рассказывает историю четырёх учеников средней школы-пансионата Кадич: Джереми, Одда, Ульрика и Юми, нашедших на заброшенном заводе проход в виртуальный мир Лиоко, который расположен в суперкомпьютере.
   В этом мире ученики подружились с местной обитательницей Аэлитой. Дети регулярно наведываются в Лиоко и защищают его, а заодно и свой мир, от нападений супер-вируса ЗАНА и его монстров.
   Но помимо сражений с монстрами есть ещё и школьная жизнь со своими радостями и огорчениями, а Джереми должен найти способ перенести Аэлиту в реальный мир.Качество: DVDRip
Формат: AVI
Видео: 720x480 (1.5:1), 29.97 fps, XviD ~1400 kbps avg
Аудио: 48 kHz, MP3, 2/0 (L,R) ch, ~128.00 kbps avg (английский)
Субтитры: русские, ass, utf-8
<div class="sp-wrap">
<div class="sp-head folded">Сезон 1 (26/26)</div>
<div class="sp-body">01. Teddygodzilla (Медвезилла)
02. Seeing Is Believing (Лучше Раз Увидеть)
03. Holiday in the Fog (Каникулы В Тумане)
04. Log Book (Дневник)
05. Big Bug (Вирус)
06. Cruel Dilemma (Непростой Выбор)
07. Image Problem (Скверный Характер )
08. End of Take (Второй Дубль)
09. Satellite (Спутник)
10. Girl of the Dreams (Девочка Из Грёз)
11. Plagued (Нашествие)
12. Swarming Attack (Атака Роя)
13. Just in Time (Успеть Вовремя)
14. The Trap (Ловушка)
15. Laughing Fit (Приступ Смеха)
16. Claustrophobia (Клаустрофобия)
17. Amnesia (Амнезия)
18. Killer Music (Убийственная музыка)
19. Frontier (Грань)
20. The Robots (Роботы)
21. Zero Gravity Zone (Зона Невесомости)
22. Routine (Рутина)
23. Rock Bottom (Трясина)
24. Ghost Channel (Призрачный Канал)
25. Code - Earth (Код: Земля)
26. False Start (Фальстарт)
27. New Order (Новый Порядок)
28. Unchartered Territory (Неизведанная Территория)
29. Exploration (Экспедиция)
30. A Great Day (Прекрасный День)
31. Mister Puck (Мистер Пак)
32. Saint Valentine's Day (День Святого Валентина)
33. Final Mix (Финальный Микс)
34. Missing Link (Недостающее Звено)
35. The Chips are Down (Тяжёлые Времена)
36. Marabounta (Марабунта)
37. Common Interest (Общие Интересы)
38. Temptation (Искушение)
39. A Bad Turn (Крутой Поворот)
40. Attack of the Zombies (Нападение Зомби)
41. Ultimatum (Ультиматум)
42. A Fine Mess (Путаница)
43. XANA's Kiss (Поцелуй ЗАНА)
44. Vertigo (Головокружение)
45. Cold War (Холодная Война)
46. Deja Vu (Дежа Вю)
47. Tip-Top Shape (Отличная Форма)
48. Is Anybody Out There (Есть Здесь Кто?)
49. Franz Hopper (Франц Хоппер)
50. Contact (Контакт)
51. Revelation (Открытие)
52. The Key (Ключ)
53. Straight to Heart (Прямо В Сердце)
54. Lyoko Minus One (Лиоко Минус Один)
55. Tidal Wave (Прилив)
56. False Lead (Ложный След)
57. Aelita (Аэлита)
58. The Pretender (Поклонник)
59. The Secret (Секрет)
60. Temporary Insanity (Временное Безумие)
61. Sabotage (Саботаж)
62. Nobody In Particular (Невидимка)
63. Triple Trouble (Тройные Неприятности)
64. Double Trouble (Двойные Неприятности)
65. Final Round (Финальный Раунд)
66. William Returns (Возвращение Уильяма)
67. Double Take (Двойная Игра)
68. Opening Act (На Разогреве)
69. Wreck Room (Комната Отдыха)
70. Skidbladnir (Скидбладнир)
71. Maiden Voyage (Первое Плавание)
72. Crash Course (Интенсивный Курс)
73. Replika (Реплика)
74. I'd Rather Not Talk About It (Я Не Хочу Об Этом Говорить)
75. Hot Shower (Огненный Дождь)
76. The Lake (Озеро)
77. Lost at Sea (Затерянная В Море)
78. Laboratory Rat (Лабораторная Крыса)
79. Bragging Rights (Бахвальство)
80. Dog Day Afternoon (Собачий Полдень)
81. A Lack of Goodwill (Недобрые Намерения)
82. Distant Memory (Далекие Воспоминания)
83. Hard Luck (Невезение)
84. Guided Missile (Управляемая Ракета)
85. Kadic Bombshell (Красотка В Кадиче)
86. Canine Conundrum (Проблемный Пёс)
87. A Space Oddity (Космический Вояж)
88. Cousins Once Removed (Троюродные Братья)
89. Music Soothes the Savage Beast (Музыка, Усмирившая Дикого Зверя)
90. Wrong Exposure (Неверный Адресат)
91. Bad Connection (Плохая Связь)
92. Cold Sweat (Холодный Пот)
93. Down to Earth (Снова На Земле)
94. Fight to the Finish (Бой До Последнего)
95. Echoes (Эхо)
00. Garage Kids (Pilot)
X1. Xana Awakens (Part 1) (Пробуждение ЗАНА, часть 1)
X2. Xana Awakens (Part 2) (Пробуждение ЗАНА, часть 2)
</div>
</div>
<div class="sp-wrap">
<div class="sp-head folded">Серии 1-52 (720x480)</div>
<div class="sp-body">

GeneralComplete name : I:\Torrents2\Code Lyoko\Season 1\01. Teddygodzilla.aviFormat : AVIFormat/Info : Audio Video InterleaveFile size : 256 MiBDuration : 23mn 11sOverall bit rate : 1 542 KbpsWriting application : VirtualDubMod 1.5.10.2 (build 2540/release)Writing library : VirtualDubMod build 2540/release

VideoID : 0Format : MPEG-4 VisualFormat profile : Simple@L3Format settings, BVOP : 1Format settings, QPel : NoFormat settings, GMC : No warppointsFormat settings, Matrix : Default (H.263)Codec ID : XVIDCodec ID/Hint : XviDDuration : 23mn 11sBit rate : 1 403 KbpsWidth : 720 pixelsHeight : 480 pixelsDisplay aspect ratio : 3:2Frame rate : 29.970 fpsStandard : NTSCColor space : YUVChroma subsampling : 4:2:0Bit depth : 8 bitsScan type : ProgressiveCompression mode : LossyBits/(Pixel*Frame) : 0.135Stream size : 233 MiB (91%)Writing library : XviD 1.1.0 Beta2 (UTC 2005-04-04)

AudioID : 1Format : MPEG AudioFormat version : Version 1Format profile : Layer 3Codec ID : 55Codec ID/Hint : MP3Duration : 23mn 11sBit rate mode : ConstantBit rate : 128 KbpsChannel(s) : 2 channelsSampling rate : 48.0 KHzCompression mode : LossyStream size : 21.2 MiB (8%)Alignment : Aligned on interleavesInterleave, duration : 33 ms (1.00 video frame)Interleave, preload duration : 504 msWriting library : LAME3.97Encoding settings : -m s -V 4 -q 0 -lowpass 17 -b 128
GeneralComplete name : I:\Torrents2\Code Lyoko\Season 3\53. Straight to Heart.aviFormat : AVIFormat/Info : Audio Video InterleaveFile size : 321 MiBDuration : 23mn 23sOverall bit rate : 1 919 KbpsWriting application : VirtualDubMod 1.6.0.0 SURROUND (build 2560/release)Writing library : VirtualDubMod build 2560/release

VideoID : 0Format : MPEG-4 VisualFormat profile : Advanced Simple@L5Format settings, BVOP : 2Format settings, QPel : NoFormat settings, GMC : No warppointsFormat settings, Matrix : Default (H.263)Muxing mode : Packed bitstreamCodec ID : XVIDCodec ID/Hint : XviDDuration : 23mn 23sBit rate : 1 747 KbpsWidth : 720 pixelsHeight : 480 pixelsDisplay aspect ratio : 3:2Frame rate : 30.000 fpsStandard : NTSCColor space : YUVChroma subsampling : 4:2:0Bit depth : 8 bitsScan type : ProgressiveCompression mode : LossyBits/(Pixel*Frame) : 0.169Stream size : 292 MiB (91%)Writing library : XviD 1.1.0 (UTC 2005-11-22)

AudioID : 1Format : MPEG AudioFormat version : Version 1Format profile : Layer 3Mode : Joint stereoMode extension : MS StereoCodec ID : 55Codec ID/Hint : MP3Duration : 23mn 22sBit rate mode : ConstantBit rate : 160 KbpsChannel(s) : 2 channelsSampling rate : 48.0 KHzCompression mode : LossyStream size : 26.8 MiB (8%)Alignment : Split accross interleavesInterleave, duration : 33 ms (1.00 video frame)Interleave, preload duration : 500 ms
GeneralComplete name : I:\Torrents2\Code Lyoko\Season 4\66. William Returns.aviFormat : AVIFormat/Info : Audio Video InterleaveFile size : 240 MiBDuration : 23mn 48sOverall bit rate : 1 411 KbpsWriting application : VirtualDubMod 1.5.10.2 (build 2542/release)Writing library : VirtualDubMod build 2542/release

VideoID : 0Format : MPEG-4 VisualFormat profile : Advanced Simple@L5Format settings, BVOP : 2Format settings, QPel : NoFormat settings, GMC : 3 warppointsFormat settings, Matrix : Default (H.263)Muxing mode : Packed bitstreamCodec ID : XVIDCodec ID/Hint : XviDDuration : 23mn 48sBit rate : 1 239 KbpsWidth : 720 pixelsHeight : 480 pixelsDisplay aspect ratio : 3:2Frame rate : 29.970 fpsStandard : NTSCColor space : YUVChroma subsampling : 4:2:0Bit depth : 8 bitsScan type : ProgressiveCompression mode : LossyBits/(Pixel*Frame) : 0.120Stream size : 211 MiB (88%)Writing library : XviD 1.1.2 (UTC 2006-11-01)

AudioID : 1Format : MPEG AudioFormat version : Version 1Format profile : Layer 3Mode : Joint stereoMode extension : MS StereoCodec ID : 55Codec ID/Hint : MP3Duration : 23mn 48sBit rate mode : ConstantBit rate : 160 KbpsChannel(s) : 2 channelsSampling rate : 44.1 KHzCompression mode : LossyStream size : 27.2 MiB (11%)Alignment : Split accross interleavesInterleave, duration : 33 ms (1.00 video frame)Interleave, preload duration : 500 msWriting library : LAME3.98aEncoding settings : -m j -V 4 -q 0 -lowpass 15.5 -b 160
GeneralComplete name : I:\Torrents2\Code Lyoko\Season 4\78. Laboratory Rat.aviFormat : AVIFormat/Info : Audio Video InterleaveFile size : 166 MiBDuration : 23mn 4sOverall bit rate : 1 007 Kbps

VideoID : 0Format : MPEG-4 VisualFormat profile : Advanced Simple@L5Format settings, BVOP : NoFormat settings, QPel : YesFormat settings, GMC : 3 warppointsFormat settings, Matrix : Default (H.263)Codec ID : XVIDCodec ID/Hint : XviDDuration : 23mn 4sBit rate : 899 KbpsWidth : 640 pixelsHeight : 480 pixelsDisplay aspect ratio : 4:3Frame rate : 30.000 fpsColor space : YUVChroma subsampling : 4:2:0Bit depth : 8 bitsScan type : ProgressiveCompression mode : LossyBits/(Pixel*Frame) : 0.098Stream size : 148 MiB (89%)Writing library : XviD 1.2.0.dev47 (UTC 2006-11-01)

AudioID : 1Format : MPEG AudioFormat version : Version 1Format profile : Layer 3Mode : Joint stereoMode extension : MS StereoCodec ID : 55Codec ID/Hint : MP3Duration : 23mn 1sSource duration : 23mn 2sBit rate mode : ConstantBit rate : 96.0 KbpsChannel(s) : 2 channelsSampling rate : 44.1 KHzCompression mode : LossyStream size : 15.8 MiB (10%)Alignment : Aligned on interleavesInterleave, duration : 33 ms (1.00 video frame)
GeneralComplete name : I:\Torrents2\Code Lyoko\Season 4\82. Distant Memory.aviFormat : AVIFormat/Info : Audio Video InterleaveFile size : 148 MiBDuration : 23mn 29sOverall bit rate : 883 KbpsWriting application : VirtualDubMod 1.5.10.2 (build 2542/release)Writing library : VirtualDubMod build 2542/release

VideoID : 0Format : MPEG-4 VisualFormat profile : Advanced Simple@L5Format settings, BVOP : 2Format settings, QPel : YesFormat settings, GMC : 3 warppointsFormat settings, Matrix : Default (H.263)Muxing mode : Packed bitstreamCodec ID : XVIDCodec ID/Hint : XviDDuration : 23mn 29sBit rate : 744 KbpsWidth : 512 pixelsHeight : 384 pixelsDisplay aspect ratio : 3:2Original display aspect ratio : 4:3Frame rate : 29.970 fpsColor space : YUVChroma subsampling : 4:2:0Bit depth : 8 bitsScan type : ProgressiveCompression mode : LossyBits/(Pixel*Frame) : 0.126Stream size : 125 MiB (84%)Writing library : XviD 1.1.2 (UTC 2006-11-01)

AudioID : 1Format : MPEG AudioFormat version : Version 1Format profile : Layer 3Mode : Joint stereoMode extension : MS StereoCodec ID : 55Codec ID/Hint : MP3Duration : 23mn 29sBit rate mode : ConstantBit rate : 128 KbpsChannel(s) : 2 channelsSampling rate : 32.0 KHzCompression mode : LossyStream size : 21.5 MiB (14%)Alignment : Aligned on interleavesInterleave, duration : 36 ms (1.08 video frame)Interleave, preload duration : 504 msWriting library : LAME3.98bEncoding settings : -m j -V 4 -q 0 -lowpass 13 -b 128
</div>
</div>

Трекер:  [ 19-Июл-2017 21:54 ]

  

Скачать .torrent

Размер .torrent файла 130 KB


Размер: 23.7 GB
Хэш (hash) релиза: 587f333a4c56f874eaf28de8fb5183a1ae62a94c
Подписка на обновления:

Еще никто не оставлял запись к записи скачать торрент Код Лиоко Code Lyoko . Будь первым!

!Обратная связь