Скачать через торрент Семейка Крудс. Начало Dawn of the Croods Фильм бесплатно в хорошем качестве torrent

Скачивайте на UnionPeer.org фильмы через торрент без регистрации. Новинки кино в хорошем качестве через торрент. На UnionPeer.org можно скачать через торрент фильмы 2014 и 2015 годов. Самые новые фильмы.

Скачать торрент Семейка Крудс. Начало Dawn of the Croods бесплатно через .torrent фильм мультфильм сериал

Если у вас наблюдаются проблемы со скриншотами, переходом по ссылками, скачиванием торрентов - проблемы в блокировщике рекламы AdBlock. #хорошегоДня!


Статистика раздачи
Размер:  8.01 GB   |    Зарегистрирован:  1 месяц 3 дня   |    .torrent скачан:  31 раз   |   
Раздают:  1  
   
Загрузка...
 
Автор Сообщение

Galfimbul

avatar Galfimbul


Семейка Крудс. Начало / Dawn of the Croods

Страна: США
Жанр: Приключения, Комедия
Продолжительность серии: 00:24:00
Год выпуска: 2015
Перевод: Профессиональный (дублированный)
Русские субтитры: нет

Режиссёр: Алекс Альмагер, Кристал Чесни, Брайан Хэтфилд / Alex Almager, Crystal Chesney, Brian Hatfi

Описание: Мало кто не смотрел полнометражный мультипликационный фильм «Семейка Крудс». А теперь появилась возможность увидеть сериал, в котором мы увидим полюбившихся героев, и узнаем как же все начиналось. Сильнейшее стихийное бедствие разрушило их жилище. Героям придется подыскать новое место для жилья. Их ждут необычные приключения, которые не раз вызовут у вас улыбку. Семья узнает много нового, интересного. Познакомятся с новыми обитателями планеты Земля. Девушка знакомится с парнем, которого зовут Малой. Он очень нравится девушке, и это очень не нравится ее папе. Папе придется смириться с выбором своей дочери. Ведь что бы достичь своей цели необходимо быть вместе, а конфликт не принесет ничего хорошего.

Качество: DVB
Формат: TS
Видео: MPEG4 Video (H264) 720x576 (15:11) 25fps [V: h264 main L3.0, yuv420p, 720x576]
Аудио: MP3 48000Hz stereo 192kbps [A: English [eng] (mp3, 48000 Hz, stereo, 192 kb/s)]
Субтитры: отсутствуют

Релиз
GeneralID : 1 (0x1)Complete name : C:\Users\Admin\Desktop\Семейка Крудс. Начало\Семейка Крудс. Начало 01 серия.tsCompleteName_Last : C:\Users\Admin\Desktop\Семейка Крудс. Начало\Семейка Крудс. Начало 25 серия.tsFormat : MPEG-TSFile size : 8.01 GiBDuration : 22mn 4sOverall bit rate mode : VariableOverall bit rate : 51.9 Mbps

VideoID : 67 (0x43)Menu ID : 1 (0x1)Format : AVCFormat/Info : Advanced Video CodecFormat profile : Main@L3.0Format settings, CABAC : YesFormat settings, ReFrames : 3 framesFormat settings, GOP : M=4, N=28Codec ID : 27Duration : 22mn 4sBit rate : 49.2 MbpsWidth : 720 pixelsHeight : 576 pixelsDisplay aspect ratio : 4:3Frame rate : 25.000 fpsStandard : ComponentColor space : YUVChroma subsampling : 4:2:0Bit depth : 8 bitsScan type : InterlacedScan order : Top Field FirstBits/(Pixel*Frame) : 4.741Stream size : 7.58 GiB (95%)Color primaries : BT.601 PALTransfer characteristics : BT.470 System B, BT.470 System GMatrix coefficients : BT.601Color range : Limited

AudioID : 68 (0x44)Menu ID : 1 (0x1)Format : MPEG AudioFormat version : Version 1Format profile : Layer 2Codec ID : 3Duration : 22mn 4sBit rate mode : ConstantBit rate : 192 KbpsChannel(s) : 2 channelsSampling rate : 48.0 KHzCompression mode : LossyStream size : 30.3 MiB (0%)Language : English


Трекер:  [ 19-Июл-2017 21:54 ]

  

Скачать .torrent

Размер .torrent файла 42 KB


Размер: 8.01 GB
Хэш (hash) релиза: f349618112948abce3068dc6ad9285d7ecd9dc60
Подписка на обновления:

Еще никто не оставлял запись к записи скачать торрент Семейка Крудс. Начало Dawn of the Croods . Будь первым!

!Обратная связь