Скачать через торрент Таймлесс 3: Изумрудная книга Emerald Green Фильм бесплатно в хорошем качестве torrent

Скачивайте на UnionPeer.org фильмы через торрент без регистрации. Новинки кино в хорошем качестве через торрент. На UnionPeer.org можно скачать через торрент фильмы 2014 и 2015 годов. Самые новые фильмы.

Скачать торрент Таймлесс 3: Изумрудная книга Emerald Green бесплатно через .torrent фильм мультфильм сериал

Если у вас наблюдаются проблемы со скриншотами, переходом по ссылками, скачиванием торрентов - проблемы в блокировщике рекламы AdBlock. #хорошегоДня!


Статистика раздачи
Размер:  1.46 GB   |    Зарегистрирован:  4 месяца 7 дней   |    .torrent скачан:  81 раз   |   
Раздают:  1  
   
Загрузка...
 
Автор Сообщение

Galfimbul

avatar Galfimbul


Таймлесс 3: Изумрудная книга / Emerald Green / Smaragdgrün

Страна: Германия
Жанр: фэнтези
Год выпуска: 2016
Продолжительность: 01:48:01

Перевод: Профессиональный (многоголосый закадровый)
Субтитры: нет
Оригинальная аудиодорожка: нетРежиссер: Феликс Фуксштайнер / Felix Fuchssteiner, Катарина Шёде / Katharina SchödeВ ролях: Мария Эрих, Яннис Нивёнер, Лаура Берлин, Йозефина Пройсс, Рольф Канис, Флориан Бартоломай, Руфус Бек, Буц Бузе, Юстина дель Корте, Тимур ИсикОписание: Что делать, если твое сердце разбито, а чувства растоптаны? Часами болтать по телефону с лучшей подругой? Есть шоколад и валяться в кровати, обливаясь слезами? Как жаль, что у Гвендолин совершенно нет на это времени. А все потому, что на семнадцатом году жизни у нее совершенно случайно обнаружился ген путешественника во времени. Голова идет кругом: хронограф, круг крови, Тайна Двенадцати, все эти балы, суаре, схватки и путешествия по темным лабиринтам прошлого, а теперь еще кто-то за ней охотится, и единственное, о чем ей действительно стоит думать, так это о том, чтобы выжить! Все нити ведут в прошлое, к таинственному графу Сен-Жермену, который ведет опасную игру, чтобы заполучить источник вечной жизни. А тут разбитое сердце! Гидеон, кто же ты - друг или враг? Что значат твои признания в любви - шутка, разыгранный как по нотам план графа или все же настоящее чувство? Разгадать все тайны Гвендолин помогут ее верные друзья.Качество видео: BDRip | SMARAGDGRUN_REMUX_HDCLUB
Формат видео: AVI

Видео: 720x304 (2.37:1), 25 fps, XviD build 73 ~1728 kbps avg, 0.32 bit/pixel
Аудио: 48 kHz, AC3 Dolby Digital, 2/0 (L,R) ch, ~192 kbpsСкачать сэмпл
...5349900
http://screenshotcomparison.com/comparison/216003/picture:0
+ там косяк со звуком.
<div class="sp-wrap">
<div class="sp-head folded">MediaInfo</div>
<div class="sp-body">
Format                      : AVI
Format/Info                 : Audio Video Interleave
File size                   : 1.46 GiB
Duration                    : 1 h 48 min
Overall bit rate            : 1 931 kb/s
Writing application         : VirtualDubMod 1.5.10.3 | www.virtualdub-fr.org || (build 2550/release)
Writing library             : VirtualDubMod build 2550/release

Video
ID                          : 0
Format                      : MPEG-4 Visual
Format profile              : Advanced Simple@L5
Format settings, BVOP       : 1
Format settings, QPel       : No
Format settings, GMC        : No warppoints
Format settings, Matrix     : Custom
Codec ID                    : XVID
Codec ID/Hint               : XviD
Duration                    : 1 h 48 min
Bit rate                    : 1 729 kb/s
Width                       : 720 pixels
Height                      : 304 pixels
Display aspect ratio        : 2.35:1
Frame rate                  : 25.000 FPS
Color space                 : YUV
Chroma subsampling          : 4:2:0
Bit depth                   : 8 bits
Scan type                   : Progressive
Compression mode            : Lossy
Bits/(Pixel*Frame)          : 0.316
Stream size                 : 1.30 GiB (90%)
Writing library             : XviD 73

Audio
ID                          : 1
Format                      : AC-3
Format/Info                 : Audio Coding 3
Format settings, Endianness : Big
Codec ID                    : 2000
Duration                    : 1 h 47 min
Bit rate mode               : Constant
Bit rate                    : 192 kb/s
Channel(s)                  : 2 channels
Channel positions           : Front: L R
Sampling rate               : 48.0 kHz
Frame rate                  : 31.250 FPS (1536 SPF)
Bit depth                   : 16 bits
Compression mode            : Lossy
Stream size                 : 148 MiB (10%)
Alignment                   : Split accross interleaves
Interleave, duration        : 40  ms (1.00 video frame)
Interleave, preload duratio : 500  ms
Service kind                : Complete Main
</div>
</div>

Трекер:  [ 17-Июл-2017 21:01 ]

  

Скачать .torrent

Размер .torrent файла 15 KB


Размер: 1.46 GB
Хэш (hash) релиза: 873ecbcb4126d0a855a23307b68d92fbc76ea7fb
Подписка на обновления:

Еще никто не оставлял запись к записи скачать торрент Таймлесс 3: Изумрудная книга Emerald Green . Будь первым!

!Обратная связь