Скачать через торрент Одарённая Gifted Фильм бесплатно в хорошем качестве torrent

Скачивайте на UnionPeer.org фильмы через торрент без регистрации. Новинки кино в хорошем качестве через торрент. На UnionPeer.org можно скачать через торрент фильмы 2014 и 2015 годов. Самые новые фильмы.

Скачать торрент Одарённая Gifted бесплатно через .torrent фильм мультфильм сериал

Если у вас наблюдаются проблемы со скриншотами, переходом по ссылками, скачиванием торрентов - проблемы в блокировщике рекламы AdBlock. #хорошегоДня!


Статистика раздачи
Размер:  1.46 GB   |    Зарегистрирован:  8 дней   |    .torrent скачан:  35 раз   |   
Раздают:  1  
   
Загрузка...
 
Автор Сообщение

Galfimbul

avatar Galfimbul


Одарённая / Gifted

Страна: США
Жанр: драма
Год выпуска: 2017
Продолжительность: 01:41:10

Перевод: Субтитры
Субтитры: русские
Оригинальная аудиодорожка: английскийРежиссер: Марк Уэбб / Marc WebbВ ролях: Крис Эванс, МакКенна Грейс, Линдси Дункан, Дженни Слейт, Октавия Спенсер, Майкл Кендалл Каплан, Джон М. Джексон, Гленн Пламмер, Джон Финн, Элизабет МарвелОписание: Фрэнк Адлер живет в прибрежном городке во Флориде и воспитывает в одиночку свою необычайно одаренную племянницу Мэри. Но планы парня о спокойной школьной жизни для девочки рушатся, когда о математических способностях ребенка узнает грозная мать Фрэнка Эвелин. У бабушки свои представления о будущем внучки, и ради этого она готова даже разлучить Мэри с Фрэнком.Качество видео: BDRip (GIFTED_REMUX_HDCLUB)
Формат видео: AVI

Видео: 720x304 (2.37:1), 23.976 fps, XviD build 73 ~1667 kbps avg, 0.32 bit/pixel
Аудио: 48 kHz, AC3 Dolby Digital, 3/2 (L,C,R,l,r) + LFE ch, ~384 kbpsСкачать сэмпл
1
00:00:51,302 --> 00:00:53,763
Эй! Ну же. Быстрее!

2
00:00:54,013 --> 00:00:54,930
Нет!

3
00:00:54,972 --> 00:00:56,640
- Покажись.
- Нет!

4
00:00:56,682 --> 00:00:58,434
Ну же.
Я приготовил тебе особенный завтрак.

5
00:00:58,476 --> 00:00:59,769
Ты не умеешь готовить.

6
00:00:59,810 --> 00:01:02,355
Слушай, Мэри, открывай!

7
00:01:02,396 --> 00:01:04,857
ОДАРЁННАЯ

8
00:01:07,610 --> 00:01:08,986
Ты красавица.

9
00:01:10,279 --> 00:01:11,864
Я похожа на героиню Диснея.

10
00:01:20,498 --> 00:01:22,208
А что тут особого?

11
00:01:22,249 --> 00:01:23,084
Что?

12
00:01:23,376 --> 00:01:25,920
Ты сказал,
что приготовил особенный завтрак.

13
00:01:26,295 --> 00:01:27,254
Кеllоgg's
Особенные

14
00:01:31,300 --> 00:01:33,052
Пожалуйста, не отправляй меня туда.

15
00:01:33,302 --> 00:01:35,346
Ты можешь и дальше обучать меня дома.

16
00:01:35,680 --> 00:01:36,931
Мне больше нечему тебя учить.

17
00:01:36,972 --> 00:01:38,307
Но я не хочу в школу.

18
00:01:38,349 --> 00:01:40,476
Я не хочу ходить на работу, но хожу.

19
00:01:41,477 --> 00:01:44,522
Ты не ходишь на работу.
Ты чинишь лодки в доке.

20
00:01:45,314 --> 00:01:47,650
Ладно, пример неудачный,
но ты всё равно пойдёшь.

21
00:01:50,152 --> 00:01:51,529
А что будет с Фредом?

22
00:01:51,570 --> 00:01:52,571
А что будет?

23
00:01:52,613 --> 00:01:53,739
Ты за ним не ухаживаешь.

24
00:01:53,781 --> 00:01:54,949
Ты не любишь кошек.

25
00:01:54,990 --> 00:01:57,326
С двумя глазами.
Фред, как известно, одноглазый.

26
00:01:57,368 --> 00:01:59,078
Кто будет бросать ему
шарик для пинг-понга?

27
00:01:59,120 --> 00:02:00,788
Фред сдюжит. И хватит спорить.

28
00:02:01,038 --> 00:02:02,498
<i>Мы</i> обсуждали это до мигрени.

29
00:02:05,835 --> 00:02:07,128
Что такое мигрень?

30
00:02:07,169 --> 00:02:09,922
Ты не знаешь?
Похоже, кое-кому нужно в школу.

31
00:02:18,764 --> 00:02:20,266
Тебе понравится.

32
00:02:20,307 --> 00:02:23,686
Ты познакомишься с детьми, у которых
всю жизнь сможешь брать деньги в долг.

33
00:02:26,105 --> 00:02:27,189
Залезай.
Format                      : AVI
Format/Info                 : Audio Video Interleave
File size                   : 1.46 GiB
Duration                    : 1 h 41 min
Overall bit rate            : 2 061 kb/s
Writing application         : VirtualDubMod 1.5.10.2 (build 2540/release)
Writing library             : VirtualDubMod build 2540/release

Video
ID                          : 0
Format                      : MPEG-4 Visual
Format profile              : Advanced Simple@L5
Format settings, BVOP       : 1
Format settings, QPel       : No
Format settings, GMC        : No warppoints
Format settings, Matrix     : Custom
Codec ID                    : XVID
Codec ID/Hint               : XviD
Duration                    : 1 h 41 min
Bit rate                    : 1 668 kb/s
Width                       : 720 pixels
Height                      : 304 pixels
Display aspect ratio        : 2.35:1
Frame rate                  : 23.976 (24000/1001) FPS
Color space                 : YUV
Chroma subsampling          : 4:2:0
Bit depth                   : 8 bits
Scan type                   : Progressive
Compression mode            : Lossy
Bits/(Pixel*Frame)          : 0.318
Stream size                 : 1.18 GiB (81%)
Writing library             : XviD 73

Audio
ID                          : 1
Format                      : AC-3
Format/Info                 : Audio Coding 3
Format settings, Endianness : Big
Codec ID                    : 2000
Duration                    : 1 h 41 min
Bit rate mode               : Constant
Bit rate                    : 384 kb/s
Channel(s)                  : 6 channels
Channel positions           : Front: L C R, Side: L R, LFE
Sampling rate               : 48.0 kHz
Frame rate                  : 31.250 FPS (1536 SPF)
Bit depth                   : 16 bits
Compression mode            : Lossy
Stream size                 : 278 MiB (19%)
Alignment                   : Split accross interleaves
Interleave, duration        : 42  ms (1.00 video frame)
Interleave, preload duratio : 500  ms
Service kind                : Complete Main


Трекер:  [ 17-Июл-2017 20:01 ]

  

Скачать .torrent

Размер .torrent файла 15 KB


Размер: 1.46 GB
Хэш (hash) релиза: 52be8e4fc23c4434c01ca4ac39be1e6621403fca
Подписка на обновления:

Торренты, похожие на Одарённая Gifted скачать торрент

Форум Название Автор Размер S L Добавлен
Зарубежные фильмы 2016-2017 (Новинки зарубежного кино) ·%· Одарённая / Gifted (2017) BDRip-AVC от OlLanDGroup | iTunes Galfimbul 20167352901.88 GB 1 1 1501042226

07:10

26-Июл-17

Зарубежные фильмы 2016-2017 (Новинки зарубежного кино) ·· Одарённая / Gifted (Марк Уэбб) [2017 г., драма, WEBRip 1080р] Line Galfimbul 39172320663.65 GB 5 4 1497410412

06:20

14-Июн-17

Зарубежные фильмы 2016-2017 (Новинки зарубежного кино) ·· Одарённая / Gifted (Марк Уэбб) [2017 г., драма, WEBRip] Line Galfimbul 14672650241.37 GB 1 6 1497410407

06:20

14-Июн-17

Зарубежные фильмы 2016-2017 (Новинки зарубежного кино) ·· Одарённая / Gifted (Марк Уэбб) [2017 г., драма, WEBRip 1080p] DUB | Звук с TS Galfimbul 35145113593.27 GB 0 0 1496478224

11:23

3-Июн-17

Зарубежные фильмы 2016-2017 (Новинки зарубежного кино) ·· Одарённая / Gifted (Марк Уэбб) [2017 г., драма, WEBRip 720p] DUB | Звук с TS Galfimbul 30383455382.83 GB 0 0 1496478222

11:23

3-Июн-17

Зарубежные фильмы 2016-2017 (Новинки зарубежного кино) ·· Одарённая / Gifted (Марк Уэбб) [2017 г., драма, WEBRip] DUB | Звук с TS Galfimbul 14675619841.37 GB 0 0 1496478220

11:23

3-Июн-17

Зарубежные фильмы 2016-2017 (Новинки зарубежного кино) ·· Одарённая / Gifted (Марк Уэбб) [2017, драма, WEBRip 1080p] Galfimbul 38946303353.63 GB 0 0 1494081781

17:43

6-Май-17

Еще никто не оставлял запись к записи скачать торрент Одарённая Gifted . Будь первым!

!Обратная связь