Скачать через торрент Эксперимент «Офис» Эксперимент Белко Фильм бесплатно в хорошем качестве torrent

Скачивайте на UnionPeer.org фильмы через торрент без регистрации. Новинки кино в хорошем качестве через торрент. На UnionPeer.org можно скачать через торрент фильмы 2014 и 2015 годов. Самые новые фильмы.

Скачать торрент Эксперимент «Офис» Эксперимент Белко бесплатно через .torrent фильм мультфильм сериал

Если у вас наблюдаются проблемы со скриншотами, переходом по ссылками, скачиванием торрентов - проблемы в блокировщике рекламы AdBlock. #хорошегоДня!


Статистика раздачи
Размер:  1.46 GB   |    Зарегистрирован:  8 дней   |    .torrent скачан:  109 раз   |   
Раздают:  2  
   
Загрузка...
 
Автор Сообщение

Galfimbul

avatar Galfimbul


Эксперимент «Офис» / Эксперимент Белко / The Belko Experiment
«Достали коллеги? Выбери себе мишень»
Страна: США, Колумбия
Жанр: Боевик, Ужасы, Триллер
Год выпуска: 2016
Продолжительность: 01:28:45

Перевод: Субтитры FOCS
Субтитры: русские, английские
Оригинальная аудиодорожка: английский

Режиссер: Грег МакЛин / Greg McLean

В ролях: Джон Галлахер мл., Тони Голдуин, Адриа Архона, Джон К. МакГинли, Мелони Диас, Овайн Йомэн, Шон Ганн, Брент Секстон, Джош Бренер, Давид ДастмалчянОписание: 80 сотрудников международной корпорации заблокированы в многоэтажном офисном здании. По внутренней связи компании неизвестный голос призывает их участвовать в смертельной игре на выживание. Они должны будут выполнить ряд изощренных заданий, первое из которых — убить коллег, вызывающих наибольшее раздражение. Иначе устроители эксперимента пустят в расход всех. Игра началась!Релиз: Студия FOCS
Переводили: Liam Miles, Яна Никифорова, Валентин Хомутенко и Людмила Никитина. MPAA: R - Лицам до 17 лет обязательно присутствие взрослогоРелиз подготовил Parabellumm, специально для Сэмпл: https://yadi.sk/i/JwoivX2u3L7e9c

Качество видео: HDRip
Формат видео: AVI

Видео: 720x304, 23.976 fps, XviD 1891 kbps avg, 0.360 bit/pixel
Аудио: 48 kHz, AC3 Dolby Digital, 3/2 (L,C,R,l,r) + LFE ch, ~448.00 kbps avg
Формат субтитров: softsub (SRT)
49
00:07:05,340 --> 00:07:06,550
Это что за хрень?

50
00:07:06,710 --> 00:07:08,710
Это маленький человек-кукуруза.

51
00:07:08,880 --> 00:07:10,090
Майк, выглядит, как будто
кто-то его уже ел.

52
00:07:10,380 --> 00:07:12,010
- Это подарок для тебя.
- Нет.

53
00:07:12,180 --> 00:07:13,520
Вот. Поставь его здесь.

54
00:07:14,010 --> 00:07:16,180
Он отвратительный. Я не хочу.

55
00:07:16,350 --> 00:07:18,190
Он счастливый. Отпугивает оборотней.

56
00:07:19,520 --> 00:07:20,730
Может сработать с Венделлом.

57
00:07:24,520 --> 00:07:26,020
Дебил.

58
00:07:27,110 --> 00:07:28,110
Боже!

59
00:07:28,280 --> 00:07:30,540
Этот человек ничего не понимает.

60
00:07:46,380 --> 00:07:47,720
Что такое?

61
00:07:47,880 --> 00:07:49,090
Возможно, нам не стоит торопиться.

62
00:07:50,550 --> 00:07:52,210
Майк, я только что развелась.

63
00:07:52,390 --> 00:07:54,060
Вышла замуж слишком молодой.

64
00:07:54,220 --> 00:07:57,640
Нет, слишком тупой.
И сейчас ничуть не умнее.

65
00:07:57,810 --> 00:07:59,730
Тогда для меня все прекрасно.
Общее
Полное имя : D:\...\The.Belko.Experiment.2016.HDRip.rus.sub.FOCS-PB\The.Belko.Experiment.2016.HDRip.rus.sub.FOCS-PB.avi
Формат : AVI
Формат/Информация : Audio Video Interleave
Размер файла : 1,46 Гбайт
Продолжительность : 1 ч. 28 м.
Общий поток : 2349 Кбит/сек
Программа кодирования : VirtualDubMod 1.5.10.3 | www.virtualdub-fr.org || (build 2550/release)
Библиотека кодирования : VirtualDubMod build 2550/release

Видео
Идентификатор : 0
Формат : MPEG-4 Visual
Профиль формата : Advanced Simple@L5
Параметр BVOP формата : 1
Параметр QPel формата : Нет
Параметр GMC формата : Без точки перехода
Параметр матрицы формата : Выборочная
Идентификатор кодека : XVID
Идентификатор кодека/Подсказка : XviD
Продолжительность : 1 ч. 28 м.
Битрейт : 1891 Кбит/сек
Ширина : 720 пикселей
Высота : 304 пикселя
Соотношение сторон : 2,35:1
Частота кадров : 23,976 (24000/1001) кадра/сек
Частота кадров в оригинале : 23,976 (23976/1000) кадра/сек
Цветовое пространство : YUV
Субдискретизация насыщенности : 4:2:0
Битовая глубина : 8 бит
Тип развёртки : Прогрессивная
Метод сжатия : С потерями
Бит/(Пиксели*Кадры) : 0.360
Размер потока : 1,17 Гбайт (81%)
Библиотека кодирования : XviD 1.2.1 (UTC 2008-12-04)

Аудио
Идентификатор : 1
Формат : AC-3
Формат/Информация : Audio Coding 3
Параметр Endianness формата : Big
Идентификатор кодека : 2000
Продолжительность : 1 ч. 28 м.
Вид битрейта : Постоянный
Битрейт : 448 Кбит/сек
Каналы : 6 каналов
Расположение каналов : Front: L C R, Side: L R, LFE
Частота : 48,0 КГц
Частота кадров : 31,250 кадров/сек (1536 spf)
Битовая глубина : 16 бит
Метод сжатия : С потерями
Размер потока : 284 Мбайт (19%)
Выравнивание : Разделение по промежуткам
Продолжительность промежутка : 42 мс. (1,00 видеокадр)
Время предзагрузки промежутка : 500 мс.
ServiceKind/String : Complete Main
Рип blow-the.belko.experiment.2016.1080p.bluray.x264.mkv скачан с rarbg.
<div class="sp-wrap">
<div class="sp-head folded">MediaInfo</div>
<div class="sp-body">Общее
Уникальный идентификатор : 170232936369897991468417459975832646418 (0x8011ABC487F0CDCF826DB59F38A2B312)
Полное имя : D:\...\The.Belko.Experiment.2016.1080p.BluRay.x264-BLOW[rarbg]\blow-the.belko.experiment.2016.1080p.bluray.x264.mkv
Формат : Matroska
Версия формата : Version 4 / Version 2
Размер файла : 6,56 Гбайт
Продолжительность : 1 ч. 28 м.
Общий поток : 10,6 Мбит/сек
Дата кодирования : UTC 2017-06-07 23:57:48
Программа кодирования : mkvmerge v8.5.2 ('DiAMOND') 64bit
Библиотека кодирования : libebml v1.3.3 + libmatroska v1.4.4

Видео
Идентификатор : 1
Формат : AVC
Формат/Информация : Advanced Video Codec
Профиль формата : High@L4.1
Параметр CABAC формата : Да
Параметр ReFrames формата : 5 кадров
Идентификатор кодека : V_MPEG4/ISO/AVC
Продолжительность : 1 ч. 28 м.
Битрейт : 9067 Кбит/сек
Ширина : 1920 пикселей
Высота : 800 пикселей
Соотношение сторон : 2,40:1
Режим частоты кадров : Постоянный
Частота кадров : 23,976 (24000/1001) кадра/сек
Цветовое пространство : YUV
Субдискретизация насыщенности : 4:2:0
Битовая глубина : 8 бит
Тип развёртки : Прогрессивная
Бит/(Пиксели*Кадры) : 0.246
Размер потока : 5,49 Гбайт (84%)
Библиотека кодирования : x264 core 150 r2833 df79067
Настройки программы : cabac=1 / ref=5 / deblock=1:0:0 / analyse=0x3:0x113 / me=umh / subme=8 / psy=1 / psy_rd=1.00:0.00 / mixed_ref=1 / me_range=16 / chroma_me=1 / trellis=1 / 8x8dct=1 / cqm=0 / deadzone=21,11 / fast_pskip=1 / chroma_qp_offset=-2 / threads=24 / lookahead_threads=4 / sliced_threads=0 / nr=0 / decimate=1 / interlaced=0 / bluray_compat=0 / constrained_intra=0 / bframes=3 / b_pyramid=2 / b_adapt=1 / b_bias=0 / direct=3 / weightb=1 / open_gop=0 / weightp=2 / keyint=240 / keyint_min=24 / scenecut=40 / intra_refresh=0 / rc_lookahead=50 / rc=2pass / mbtree=1 / bitrate=9067 / ratetol=1.0 / qcomp=0.60 / qpmin=0 / qpmax=69 / qpstep=4 / cplxblur=20.0 / qblur=0.5 / ip_ratio=1.40 / aq=1:1.00
Язык : English
Default : Да
Forced : Нет

Аудио
Идентификатор : 2
Формат : DTS
Формат/Информация : Digital Theater Systems
Режим : 16
Параметр Endianness формата : Big
Идентификатор кодека : A_DTS
Продолжительность : 1 ч. 28 м.
Вид битрейта : Постоянный
Битрейт : 1509 Кбит/сек
Каналы : 6 каналов
Расположение каналов : Front: L C R, Side: L R, LFE
Частота : 48,0 КГц
Частота кадров : 93,750 кадра/сек (512 spf)
Битовая глубина : 24 бит
Метод сжатия : С потерями
Размер потока : 958 Мбайт (14%)
Язык : English
Default : Да
Forced : Нет

Текст #1
Идентификатор : 3
Формат : UTF-8
Идентификатор кодека : S_TEXT/UTF8
Идентификатор кодека/Информация : UTF-8 Plain Text
Заголовок : English regular
Язык : English
Default : Нет
Forced : Нет

Текст #2
Идентификатор : 4
Формат : UTF-8
Идентификатор кодека : S_TEXT/UTF8
Идентификатор кодека/Информация : UTF-8 Plain Text
Заголовок : English sdh
Язык : English
Default : Нет
Forced : Нет

Меню
00:00:00.000 : en:00:00:00.000
00:02:39.993 : en:00:02:39.993
00:05:18.944 : en:00:05:18.944
00:09:21.019 : en:00:09:21.019
00:11:17.886 : en:00:11:17.886
00:14:06.095 : en:00:14:06.095
00:16:29.906 : en:00:16:29.906
00:19:13.736 : en:00:19:13.736
00:22:43.529 : en:00:22:43.529
00:24:48.320 : en:00:24:48.320
00:28:11.565 : en:00:28:11.565
00:30:31.997 : en:00:30:31.997
00:33:47.442 : en:00:33:47.442
00:37:12.313 : en:00:37:12.313
00:41:57.056 : en:00:41:57.056
00:44:22.118 : en:00:44:22.118
00:47:42.026 : en:00:47:42.026
00:50:24.230 : en:00:50:24.230
00:53:04.723 : en:00:53:04.723
00:56:46.445 : en:00:56:46.445
01:00:59.239 : en:01:00:59.239
01:03:07.075 : en:01:03:07.075
01:04:40.794 : en:01:04:40.794
01:08:04.664 : en:01:08:04.664
01:10:40.945 : en:01:10:40.945
01:15:19.557 : en:01:15:19.557
01:19:18.420 : en:01:19:18.420
01:24:33.652 : en:01:24:33.652
</div>
</div>
Внимание! Присутствует ненормативная лексика.

Трекер:  [ 17-Июл-2017 19:30 ]

  

Скачать .torrent

Размер .torrent файла 15 KB


Размер: 1.46 GB
Хэш (hash) релиза: ac95daa364eee1581fb80543451774b14e3bc0e2
Подписка на обновления:

Торренты, похожие на Эксперимент «Офис» Эксперимент Белко скачать торрент

Форум Название Автор Размер S L Добавлен
Зарубежные фильмы 2016-2017 (Новинки зарубежного кино) ·· Эксперимент Белко / Эксперимент «Офис» / The Belko Experiment (Грег МакЛин / Greg McLean) [2016, США, Колумбия, боевик, ужасы, триллер, HDRip] DVO Galfimbul 17760370021.65 GB 7 0 1500984079

15:01

25-Июл-17

Еще никто не оставлял запись к записи скачать торрент Эксперимент «Офис» Эксперимент Белко . Будь первым!

!Обратная связь