Скачать через торрент Машина войны War Machine Фильм бесплатно в хорошем качестве torrent

Скачивайте на UnionPeer.org фильмы через торрент без регистрации. Новинки кино в хорошем качестве через торрент. На UnionPeer.org можно скачать через торрент фильмы 2014 и 2015 годов. Самые новые фильмы.

Скачать торрент Машина войны War Machine бесплатно через .torrent фильм мультфильм сериал

Если у вас наблюдаются проблемы со скриншотами, переходом по ссылками, скачиванием торрентов - проблемы в блокировщике рекламы AdBlock. #хорошегоДня!


Статистика раздачи
Размер:  1.46 GB   |    Зарегистрирован:  4 месяца 7 дней   |    .torrent скачан:  85 раз   |   
Раздают:  1  
   
Загрузка...
 
Автор Сообщение

Galfimbul

avatar Galfimbul


Машина войны / War Machine
«From the producers of the Big Short comes a story about the politics of war»
Страна: США
Жанр: Комедия, Драма, Военный
Год выпуска: 2017
Продолжительность: 02:02:38

Перевод: Субтитры FOCS
Субтитры: русские, английские
Оригинальная аудиодорожка: английский

Режиссер: Дэвид Мишо, David Michod

В ролях: Брэд Питт, Энтони Хэйес, Джон Магаро, Энтони Майкл Холл, Эмори Коэн, Тофер Грейс, Дэниэл Беттс, Аймен Хамдуши, АрДжей Сайлер, Алан РакОписание: Генерал Стэнли Маккристал — одиозная фигура в истории антитеррористических операций США. Стремительный взлёт и досрочная отставка из-за скандальной статьи Rolling Stone в 2010 году стали одним из самых обсуждаемых в политических кулуарах событий, вызвав массу слухов и предположений. Фильм основан на документальной книге репортера Майкла Гастингса и посвящен Афганскому периоду в военной карьере Маккристала.Релиз: Студия FOCS
Переводили: Виталий Тарасов, Яна Никифорова, Валентин Хомутенко, Кирилл Миронов, Иден Тоукен, Анастасия Егорова, Оля Ромикова и Людмила Никитина.. Релиз подготовил Parabellumm, специально для Сэмпл: https://yadi.sk/i/JwoivX2u3L7e9c

Качество видео: HDRip
Формат видео: AVI

Видео: 720x304, 23.976 fps, XviD 1310 kbps avg, 0.249 bit/pixel
Аудио: 48 kHz, AC3 Dolby Digital, 3/2 (L,C,R,l,r) + LFE ch, ~384.00 kbps avg
Формат субтитров: softsub (SRT)
436
00:25:33,000 --> 00:25:35,080
Чёрт возьми.

437
00:25:36,500 --> 00:25:39,500
Вот оно.

438
00:25:39,580 --> 00:25:42,540
Что я вам говорил?
Он уже почти генерал в отставке.

439
00:25:42,620 --> 00:25:45,450
В мыслях он уже давно
отправился на поле для гольфа.

440
00:25:45,540 --> 00:25:48,370
У него нет полномочий
решать вопросы посерьёзней.

441
00:25:48,450 --> 00:25:50,410
Очевидно, что эта
грёбаная работа не для него.

442
00:25:51,700 --> 00:25:53,370
Ты же выключил эту штуковину?

443
00:25:53,450 --> 00:25:55,580
Мне неприятно вам
это говорить, генерал,

444
00:25:55,660 --> 00:25:59,580
мы рассмотрим ваш доклад
только после выборов в Афганистане.

445
00:26:00,250 --> 00:26:05,330
Мадам госсекретарь, при всём уважении,
но до выборов ждать целый месяц.

446
00:26:05,410 --> 00:26:09,410
Знаю, но уверена, вы в курсе, что
здешние выборы - это нечто хрупкое

447
00:26:09,500 --> 00:26:11,620
и нестабильное.

448
00:26:11,700 --> 00:26:16,410
Ни в чьих интересах портить выборы
наступлением со стороны Америки.

449
00:26:16,500 --> 00:26:18,370
Как я и сказал, никаких солдат.

450
00:26:18,450 --> 00:26:20,220
Нам нужно
пересмотреть план действий.

451
00:26:20,250 --> 00:26:22,160
Дик, при всём уважении,

452
00:26:22,250 --> 00:26:25,660
вы сказали, что вам без разницы,
дадут мне солдат или нет.

453
00:26:25,750 --> 00:26:28,080
Теперь я пытаюсь понять,
как выполнить свою работу.

454
00:26:28,160 --> 00:26:29,870
Я не говорил, что мне без разницы.

455
00:26:29,950 --> 00:26:31,750
- Вы всё же сказали.
- Я не говорил.
Общее
Полное имя : D:\...\War.Machine.2017.HDRip.rus.sub.FOCS\War.Machine.2017.HDRip.rus.sub.FOCS-PB.avi
Формат : AVI
Формат/Информация : Audio Video Interleave
Размер файла : 1,46 Гбайт
Продолжительность : 2 ч. 2 м.
Общий поток : 1703 Кбит/сек
Программа кодирования : VirtualDubMod 1.5.10.3 | www.virtualdub-fr.org || (build 2550/release)
Библиотека кодирования : VirtualDubMod build 2550/release

Видео
Идентификатор : 0
Формат : MPEG-4 Visual
Профиль формата : Advanced Simple@L5
Параметр BVOP формата : 1
Параметр QPel формата : Нет
Параметр GMC формата : Без точки перехода
Параметр матрицы формата : Выборочная
Идентификатор кодека : XVID
Идентификатор кодека/Подсказка : XviD
Продолжительность : 2 ч. 2 м.
Битрейт : 1310 Кбит/сек
Ширина : 720 пикселей
Высота : 304 пикселя
Соотношение сторон : 2,35:1
Частота кадров : 24,000 кадра/сек
Цветовое пространство : YUV
Субдискретизация насыщенности : 4:2:0
Битовая глубина : 8 бит
Тип развёртки : Прогрессивная
Метод сжатия : С потерями
Бит/(Пиксели*Кадры) : 0.249
Размер потока : 1,12 Гбайт (77%)
Библиотека кодирования : XviD 1.2.1 (UTC 2008-12-04)

Аудио
Идентификатор : 1
Формат : AC-3
Формат/Информация : Audio Coding 3
Параметр Endianness формата : Big
Идентификатор кодека : 2000
Продолжительность : 2 ч. 2 м.
Вид битрейта : Постоянный
Битрейт : 384 Кбит/сек
Каналы : 6 каналов
Расположение каналов : Front: L C R, Side: L R, LFE
Частота : 48,0 КГц
Частота кадров : 31,250 кадров/сек (1536 spf)
Битовая глубина : 16 бит
Метод сжатия : С потерями
Размер потока : 337 Мбайт (23%)
Выравнивание : Разделение по промежуткам
Продолжительность промежутка : 42 мс. (1,00 видеокадр)
Время предзагрузки промежутка : 500 мс.
ServiceKind/String : Complete Main
Рип War.Machine.2017.1080p.NF.WEBRip.DD5.1.x264-SB.mkv скачан с rarbg.
<div class="sp-wrap">
<div class="sp-head folded">MediaInfo</div>
<div class="sp-body">Общее
Уникальный идентификатор : 217331875100480149915478450330775546450 (0xA38098BB9A314601AF2903D396176A52)
Полное имя : D:\...\War.Machine.2017.1080p.NF.WEBRip.DD5.1.x264-SB.mkv
Формат : Matroska
Версия формата : Version 4 / Version 2
Размер файла : 5,43 Гбайт
Продолжительность : 2 ч. 2 м.
Общий поток : 6344 Кбит/сек
Название фильма : War.Machine.2017.1080p.NF.WEBRip.DD5.1.x264-SB
Дата кодирования : UTC 2017-05-26 11:48:05
Программа кодирования : mkvmerge v11.0.0 ('Alive') 64bit
Библиотека кодирования : libebml v1.3.4 + libmatroska v1.4.5
Обложка : Yes
Attachments : cover.jpg / cover_land.jpg / small_cover.jpg / small_cover_land.jpg

Видео
Идентификатор : 1
Формат : AVC
Формат/Информация : Advanced Video Codec
Профиль формата : High@L4.1
Параметр CABAC формата : Да
Параметр ReFrames формата : 4 кадра
Идентификатор кодека : V_MPEG4/ISO/AVC
Продолжительность : 2 ч. 2 м.
Битрейт : 5834 Кбит/сек
Ширина : 1920 пикселей
Высота : 816 пикселей
Соотношение сторон : 2,35:1
Режим частоты кадров : Постоянный
Частота кадров : 24,000 кадра/сек
Цветовое пространство : YUV
Субдискретизация насыщенности : 4:2:0
Битовая глубина : 8 бит
Тип развёртки : Прогрессивная
Бит/(Пиксели*Кадры) : 0.155
Размер потока : 5,00 Гбайт (92%)
Заголовок : War.Machine.2017.1080p.NF.WEBRip.DD5.1.x264-SB
Библиотека кодирования : x264 core 148 r2744 b97ae06
Настройки программы : cabac=1 / ref=3 / deblock=1:-3:-3 / analyse=0x3:0x113 / me=hex / subme=7 / psy=1 / psy_rd=1.05:0.10 / mixed_ref=1 / me_range=16 / chroma_me=1 / trellis=1 / 8x8dct=1 / cqm=0 / deadzone=21,11 / fast_pskip=1 / chroma_qp_offset=-3 / threads=18 / lookahead_threads=3 / sliced_threads=0 / slices=4 / nr=0 / decimate=1 / interlaced=0 / bluray_compat=0 / constrained_intra=0 / bframes=3 / b_pyramid=2 / b_adapt=1 / b_bias=0 / direct=1 / weightb=1 / open_gop=0 / weightp=2 / keyint=240 / keyint_min=24 / scenecut=40 / intra_refresh=0 / rc_lookahead=40 / rc=crf / mbtree=1 / crf=15.0 / qcomp=0.60 / qpmin=0 / qpmax=69 / qpstep=4 / vbv_maxrate=16520 / vbv_bufsize=17525 / crf_max=0.0 / nal_hrd=none / filler=0 / ip_ratio=1.40 / aq=3:0.85
Язык : English
Default : Да
Forced : Нет

Аудио
Идентификатор : 2
Формат : AC-3
Формат/Информация : Audio Coding 3
Параметр Endianness формата : Big
Идентификатор кодека : A_AC3
Продолжительность : 2 ч. 2 м.
Вид битрейта : Постоянный
Битрейт : 384 Кбит/сек
Каналы : 6 каналов
Расположение каналов : Front: L C R, Side: L R, LFE
Частота : 48,0 КГц
Частота кадров : 31,250 кадров/сек (1536 spf)
Битовая глубина : 16 бит
Метод сжатия : С потерями
Размер потока : 337 Мбайт (6%)
Заголовок : War.Machine.2017.1080p.NF.WEBRip.DD5.1.x264-SB
Язык : English
ServiceKind/String : Complete Main
Default : Да
Forced : Нет

Текст #1
Идентификатор : 3
Формат : UTF-8
Идентификатор кодека : S_TEXT/UTF8
Идентификатор кодека/Информация : UTF-8 Plain Text
Язык : English
Default : Да
Forced : Нет

Текст #2
Идентификатор : 4
Формат : UTF-8
Идентификатор кодека : S_TEXT/UTF8
Идентификатор кодека/Информация : UTF-8 Plain Text
Язык : German
Default : Нет
Forced : Нет

Текст #3
Идентификатор : 5
Формат : UTF-8
Идентификатор кодека : S_TEXT/UTF8
Идентификатор кодека/Информация : UTF-8 Plain Text
Язык : Dutch
Default : Нет
Forced : Нет

Текст #4
Идентификатор : 6
Формат : UTF-8
Идентификатор кодека : S_TEXT/UTF8
Идентификатор кодека/Информация : UTF-8 Plain Text
Язык : French
Default : Нет
Forced : Нет
</div>
</div>
Внимание! Присутствует ненормативная лексика.

Трекер:  [ 17-Июл-2017 19:30 ]

  

Скачать .torrent

Размер .torrent файла 15 KB


Размер: 1.46 GB
Хэш (hash) релиза: aa8f1b465da1c7423df801d36dd8a8e41a91e77f
Подписка на обновления:

Торренты, похожие на Машина войны War Machine скачать торрент

Форум Название Автор Размер S L Добавлен
Зарубежные фильмы 2016-2017 (Новинки зарубежного кино) ·· Машина войны / War Machine (Дэвид Мишо) [2017, драма, комедия, военный, WEB-DLRip] Galfimbul 21971599362.05 GB 0 0 1496058599

14:49

29-Май-17

Зарубежные фильмы 2016-2017 (Новинки зарубежного кино) ·· Машина войны / War Machine (Дэвид Мишо) [2017, драма, комедия, военный, WEB-DLRip 720р] Galfimbul 40753417063.8 GB 0 0 1496058594

14:49

29-Май-17

Зарубежные фильмы 2016-2017 (Новинки зарубежного кино) ·· Машина войны / War Machine (Дэвид Мишо) [2017, драма, комедия, военный, WEB-DLRip 1080р] Galfimbul 48343156874.5 GB 0 0 1496058588

14:49

29-Май-17

Зарубежные фильмы 2016-2017 (Новинки зарубежного кино) ·· Машина войны / War Machine (Дэвид Мишо) [2017, драма, комедия, военный, WEBRip] Galfimbul 14675189761.37 GB 0 0 1495960862

11:41

28-Май-17

Документальные фильмы и телепередачи ·· Кровь и железо: История немецкой военной машины (3 серии из 3) / Blood & Iron: The Story of the German War Machine [1995, Документальный, война, история, SATRip] Galfimbul 18825912321.75 GB 0 0 1457761137

08:38

12-Мар-16

Еще никто не оставлял запись к записи скачать торрент Машина войны War Machine . Будь первым!

!Обратная связь