Скачать через торрент Стар против Сил Зла Звёздная принцесса и силы зла Фильм бесплатно в хорошем качестве torrent

Скачивайте на UnionPeer.org фильмы через торрент без регистрации. Новинки кино в хорошем качестве через торрент. На UnionPeer.org можно скачать через торрент фильмы 2014 и 2015 годов. Самые новые фильмы.

Скачать торрент Стар против Сил Зла Звёздная принцесса и силы зла бесплатно через .torrent фильм мультфильм сериал

Если у вас наблюдаются проблемы со скриншотами, переходом по ссылками, скачиванием торрентов - проблемы в блокировщике рекламы AdBlock. #хорошегоДня!


Статистика раздачи
Размер:  18.65 GB   |    Зарегистрирован:  2 месяца 30 дней   |    .torrent скачан:  45 раз   |   
Раздают:  1  
   
Загрузка...
 
Автор Сообщение

Galfimbul

avatar Galfimbul


Стар против Сил Зла / Звёздная принцесса и силы зла / Star vs the Forces of Evil

Страна: США
Жанр: Комедия, семейный, приключения
Продолжительность серии: 00:22:00
Год выпуска: 2016
Перевод: Любительский (двухголосый закадровый) [Soderling и HeavyBlozar]
Русские субтитры: нетРежиссёр: Дэвид Вассон / David WassonОписание: Американский анимационный телесериал, созданный студией «Disney Television Animation».
Стар Баттерфлай - волшебная принцесса из измерения Мьюни. В свой 14-й день рождения она получает семейную реликвию - волшебную палочку. После того, как Стар случайно поджигает свой замок, ее родители решают, что наиболее безопасным вариантом будет отправить принцессу на Землю в качестве студента по обмену. На Земле Стар дружится с Марко Диасом и селится вместе с его семьей, посещает местную школу. Стар и Марко разбираются с повседневной школьной жизнью, одновременно защищая палочку Стар от попадания в руки Людо, злодея из Мьюни, командующего армией монстров.Список серий:
01 - My New Wand / Ludo In The Wild
02 - Mr. Candle Cares / Red Belt
03 - Star on Wheels / Fetch
04 - Echo Creek / Wand To Wand
05 - Starstruck / Camping Trip
06 - Starsitting / On The Job
07 - Goblin Dogs / By The Book
08 - Game of Flags / Girls Day Out
09 - Sleepover / Gift of The Card
10 - Friendenemies / Is Mystery
11 - Hungry Larry / Spider With a Top Hat
12 - Into The Wand / Pizza Thing
13 - Page Turner / Naysaya
14 - Bon Bon the Birthday Clown
15 - Raid the Cave / Trickstar
16 - Baby / Running with Scissors
17 - Mathmagic / The Bounce Lounge
18 - Crystal Clear / The Hard Way
19 - Heinous / All Belts Are Off
20 - Collateral Damage / Just Friends
21 - Face The Music
22 - StarcrushedСсылка на предыдущие и альтернативные раздачи:

Семплы:
multi-up.com: sample 1, sample 2
Яндекс диск: sample 1, sample 2Качество: WEB-DL
Формат: MKV
Видео: MPEG4 Video (H264) 1920x1080 23.976fps
Аудио 1: AC-3, 48.0 kHz, 2 ch, 192 Kbps [русский, Soderling и HeavyBlozar]
Аудио 2: AAC, 48.0 kHz, 2 ch, ~150 Kbps [английский, оригинал]
Субтитры: английские, отключаемые
GeneralUnique ID : 233239250217287997653668491246865606420 (0xAF783EE0F3A12DDA89074DCDEF15E714)Complete name : G:\Star vs\done\s2e01 - My New Wand, Ludo In The Wild.mkvFormat : MatroskaFormat version : Version 4 / Version 2File size : 918 MiBDuration : 22 min 43 sOverall bit rate : 5 647 kb/sEncoded date : UTC 2017-04-04 14:44:45Writing application : mkvmerge v10.0.0 ('To Drown In You') 32bitWriting library : libebml v1.3.4 + libmatroska v1.4.5

VideoID : 1Format : AVCFormat/Info : Advanced Video CodecFormat profile : High@L4Format settings, CABAC : YesFormat settings, ReFrames : 4 framesCodec ID : V_MPEG4/ISO/AVCDuration : 22 min 41 sBit rate : 5 310 kb/sWidth : 1 920 pixelsHeight : 1 080 pixelsDisplay aspect ratio : 16:9Frame rate mode : ConstantFrame rate : 23.976 (24000/1001) FPSColor space : YUVChroma subsampling : 4:2:0Bit depth : 8 bitsScan type : ProgressiveBits/(Pixel*Frame) : 0.107Stream size : 862 MiB (94%)Title : S02E01 : My New Wand! - S02E02 : Ludo in the WildLanguage : EnglishDefault : YesForced : NoColor range : LimitedColor primaries : BT.709Transfer characteristics : BT.709Matrix coefficients : BT.709

Audio #1ID : 2Format : AC-3Format/Info : Audio Coding 3Mode extension : CM (complete main)Format settings, Endianness : BigCodec ID : A_AC3Duration : 22 min 43 sBit rate mode : ConstantBit rate : 192 kb/sChannel(s) : 2 channelsChannel positions : Front: L RSampling rate : 48.0 kHzFrame rate : 31.250 FPS (1536 spf)Bit depth : 16 bitsCompression mode : LossyStream size : 31.2 MiB (3%)Title : [RUS] SoderlingLanguage : RussianDefault : YesForced : No

Audio #2ID : 3Format : AACFormat/Info : Advanced Audio CodecFormat profile : LCCodec ID : A_AACDuration : 22 min 41 sBit rate : 151 kb/sChannel(s) : 2 channelsChannel positions : Front: L RSampling rate : 48.0 kHzFrame rate : 46.875 FPS (1024 spf)Compression mode : LossyStream size : 24.5 MiB (3%)Title : [ENG] AAC 2.0Language : EnglishDefault : NoForced : No
Раздача ведётся в дневное и вечернее время.
Поскольку долго поддерживать раздачу на плаву нет технической возможности, просьба к скачавшим: пожалуйста, оставайтесь на раздаче!

Трекер:  [ 17-Июл-2017 16:54 ]

  

Скачать .torrent

Размер .torrent файла 97 KB


Размер: 18.65 GB
Хэш (hash) релиза: f1fff14b2f7bb2c9b190d80b835d3a2581d12263
Подписка на обновления:

Торренты, похожие на Стар против Сил Зла Звёздная принцесса и силы зла скачать торрент

Форум Название Автор Размер S L Добавлен
Мультсериалы ·· Звёздная Принцесса и Силы Зла / Стар против Сил Зла / Star vs the Forces of Evil / Сезон: 2 / Серии: 1-2 из 22 (Дэвид Вассон / David Wasson) [2016, США, Комедия, семейный, приключения, WEB-DL 1080p] Dub + Original Eng Galfimbul 18726084121.74 GB 0 0 1481051521

22:12

6-Дек-16

Мультсериалы ·· Звёздная Принцесса и Силы Зла / Стар против Сил Зла / Star vs the Forces of Evil / Сезон: 2 / Серии: 1-9 из 22 (Дэвид Вассон / David Wasson) [2016, США, Комедия, семейный, приключения, WEB-DL 1080p] Dub + Original Eng Galfimbul 82190450217.65 GB 0 0 1483204988

20:23

31-Дек-16

Мультсериалы ·· Звёздная Принцесса и Силы Зла / Стар против Сил Зла / Star vs the Forces of Evil / Сезон: 2 / Серии: 1-8 из 22 (Дэвид Вассон / David Wasson) [2016, США, Комедия, семейный, приключения, WEB-DL 1080p] Dub + Original Eng Galfimbul 73111369256.81 GB 0 0 1482295262

07:41

21-Дек-16

Мультсериалы ·· Звёздная Принцесса и Силы Зла / Стар против Сил Зла / Star vs the Forces of Evil / Сезон: 2 / Серии: 1-3 из 22 (Дэвид Вассон / David Wasson) [2016, США, Комедия, семейный, приключения, WEB-DL 1080p] Dub + Original Eng Galfimbul 27795340172.59 GB 0 0 1481143299

23:41

7-Дек-16

Еще никто не оставлял запись к записи скачать торрент Стар против Сил Зла Звёздная принцесса и силы зла . Будь первым!

!Обратная связь