Скачать через торрент Стражи галактики Marvels Guardians of the Galaxy Фильм бесплатно в хорошем качестве torrent

Скачивайте на UnionPeer.org фильмы через торрент без регистрации. Новинки кино в хорошем качестве через торрент. На UnionPeer.org можно скачать через торрент фильмы 2014 и 2015 годов. Самые новые фильмы.

Скачать торрент Стражи галактики Marvels Guardians of the Galaxy бесплатно через .torrent фильм мультфильм сериал

Если у вас наблюдаются проблемы со скриншотами, переходом по ссылками, скачиванием торрентов - проблемы в блокировщике рекламы AdBlock. #хорошегоДня!


Статистика раздачи
Размер:  10.78 GB   |    Зарегистрирован:  1 месяц 6 дней   |    .torrent скачан:  35 раз   |   
Раздают:  1  
   
Загрузка...
 
Автор Сообщение

Galfimbul

avatar Galfimbul


Стражи галактики
Marvel's Guardians of the Galaxy
Год выпуска: 2015
Страна: США
Жанр: мультсериал, фантастика, боевик, приключения
Продолжительность: ~00:22:00
Перевод: Профессиональный (Дублированный) - Disney
русские субтитры: нетРежиссёр: Эрик Радомски : Eric Radomski, Лео Райли : Leo RileyРоли озвучивали: Уилл Фридел, Тревор Дивэлл, Кевин Майкл Ричардсон, Ванесса Маршалл, Дэвид Соболев, Джеймс Арнольд Тейлор, Айзек С. Синглтон мл., Кри Саммер, Джонатан Адамс, Джонатан ФрейксОписание: Прежде чем стать Стражами, каждому из них пришлось преодолеть немало трудностей на своём пути… - Запись звука BenderBEST, #Antisnl#
- Работа c дорогой BenderBESTдоп.информация: на 6 серию были сдланы форсированные русские субтитры на не переведенные моменты. (с 00:00:50 по 00:01:07, 00:03:48, с 00:17:36 по 00:17:41)Качество: WEB-DL 720p
Формат: MKV
Видео кодек: AVC
Аудио кодек: AC3
Видео: 1280x720, 23,976 fps, ~4266 kbps avg, 0.193 bit/pixel
Аудио #1: [RUS] 48 kHz, AC3 Dolby Digital, 2/0 (L,R) ch, ~192 kbps avg
Аудио #2: [ENG] 48 kHz, AC3 Dolby Digital, 3/2 (L,C,R,l,r) + LFE ch, ~384 kbps
субтитры: английские
01. Road to Knowhere
02. Knowhere to Run
03. One in a Million You
04. Take the Milano and Run
05. Cant Fight this Seedling
06. Undercover Angle
07. The Backstabbers
08. Hitchin a Ride
09. We Are Family
10. Bad Moon Rising
11. Space Cowboys
12. Crystal Blue Persuasion
13. Stuck in the Metal with You
14. Dont Stop Believin
15. Accidents Will Happen
General
Unique ID : 182197242298181364843845657755816768384 (0x8911E997CF5210ACAA7C4E9BBFCF3380)
Complete name : D:\Mult\Guardians of the Galaxy.S01.WEB-DL 720p\Guardians of the Galaxy.s01e01.WEB-DL 720p.mkv
Format : Matroska
Format version : Version 4 / Version 2
File size : 767 MiB
Duration : 22 min
Overall bit rate : 4 844 kb/s
Encoded date : UTC 2017-07-17 07:05:54
Writing application : mkvmerge v13.0.0 ('The Juggler') 64bit
Writing library : libebml v1.3.4 + libmatroska v1.4.5

Video
ID : 1
Format : AVC
Format/Info : Advanced Video Codec
Format profile : High@L3.1
Format settings, CABAC : No
Format settings, ReFrames : 2 frames
Codec ID : V_MPEG4/ISO/AVC
Duration : 22 min
Bit rate : 4 266 kb/s
Width : 1 280 pixels
Height : 720 pixels
Display aspect ratio : 16:9
Frame rate mode : Constant
Frame rate : 23.976 (24000/1001) FPS
Color space : YUV
Chroma subsampling : 4:2:0
Bit depth : 8 bits
Scan type : Progressive
Bits/(Pixel*Frame) : 0.193
Stream size : 675 MiB (88%)
Language : English
Default : Yes
Forced : Yes
Color range : Limited
Color primaries : BT.709
Transfer characteristics : BT.709
Matrix coefficients : BT.709

Audio #1
ID : 2
Format : AC-3
Format/Info : Audio Coding 3
Mode extension : CM (complete main)
Format settings, Endianness : Big
Codec ID : A_AC3
Duration : 22 min
Bit rate mode : Constant
Bit rate : 192 kb/s
Channel(s) : 2 channels
Channel positions : Front: L R
Sampling rate : 48.0 kHz
Frame rate : 31.250 FPS (1536 spf)
Compression mode : Lossy
Stream size : 30.4 MiB (4%)
Title : AC3 2.0 @ 192 kbps - DUB, Disney / Невафильм
Language : Russian
Default : Yes
Forced : Yes

Audio #2
ID : 3
Format : AC-3
Format/Info : Audio Coding 3
Mode extension : CM (complete main)
Format settings, Endianness : Big
Codec ID : A_AC3
Duration : 22 min
Bit rate mode : Constant
Bit rate : 384 kb/s
Channel(s) : 6 channels
Channel positions : Front: L C R, Side: L R, LFE
Sampling rate : 48.0 kHz
Frame rate : 31.250 FPS (1536 spf)
Compression mode : Lossy
Stream size : 60.8 MiB (8%)
Title : AC3 5.1 @ 384 kbps
Language : English
Default : No
Forced : No

Text
ID : 4
Format : UTF-8
Codec ID : S_TEXT/UTF8
Codec ID/Info : UTF-8 Plain Text
Duration : 21 min
Bit rate : 110 b/s
Count of elements : 400
Stream size : 17.4 KiB (0%)
Title : SDH
Language : English
Default : No
Forced : No
Внимание, это обновляемая раздача!!!
Всем скачавшим и поддерживающим раздачу - обновляйте скачанный релиз после каждого дополнения.
Вам нужно скачать обновленный торрент еще раз, вновь запустить его и сохранить обновленный релиз поверх старого, т.е. в ту же папку.


Трекер:  [ 17-Июл-2017 10:54 ]

  

Скачать .torrent

Размер .torrent файла 28 KB


Размер: 10.78 GB
Хэш (hash) релиза: f215096865008f60efcbb2fc3eac28624b626c82
Подписка на обновления:

Еще никто не оставлял запись к записи скачать торрент Стражи галактики Marvels Guardians of the Galaxy . Будь первым!

!Обратная связь