Скачать через торрент Каслвания Castlevania Фильм бесплатно в хорошем качестве torrent

Скачивайте на UnionPeer.org фильмы через торрент без регистрации. Новинки кино в хорошем качестве через торрент. На UnionPeer.org можно скачать через торрент фильмы 2014 и 2015 годов. Самые новые фильмы.

Скачать торрент Каслвания Castlevania бесплатно через .torrent фильм мультфильм сериал

Если у вас наблюдаются проблемы со скриншотами, переходом по ссылками, скачиванием торрентов - проблемы в блокировщике рекламы AdBlock. #хорошегоДня!


Статистика раздачи
Размер:  2.17 GB   |    Зарегистрирован:  1 месяц 4 дня   |    .torrent скачан:  27 раз   |   
Раздают:  1  
   
Загрузка...
 
Автор Сообщение

Galfimbul

avatar Galfimbul


Каслвания / Castlevania

Страна: США
Жанр: мультфильм, приключения, фэнтези, ужасы
Продолжительность серии: ~25 мин.
Год выпуска: 2017
Перевод: СубтитрыРежиссёр: Сэм Диц / Sam Deats
Роли озвучивали: Ричард Армитедж, Тони Амендола, Мэтт Фрюэр, Эмили Суоллоу, Джеймс Кэллис, Алехандра Рейносо, Грэм МакТавишРусские субтитры от SovetRomantica
Перевод: Sivarius | Редактура: RistrettoОписание: Сюжет серии Castlevania основан на извечном противостоянии клана Бельмонтов (Belmonts) и графа Дракулы. Каждые сто лет Дракула восстаёт из своей могилы, чтобы пить кровь невинных людей и плодить армию нечисти с целью погрузить весь мир во тьму. И Бельмонты, наделённые особенной силой по уничтожению вампиров, должны помешать коварному графу.

Когда его возлюбленную сжигают на костре после ложного обвинения в колдовстве, вампирский граф Влад Дракула Цепеш заявляет, что все жители Валахии заплатят за содеянное своими жизнями. Его армия монстров и демонов переполняет страну, заставляя людей жить в страхе и недоверии. Чтобы бороться с этим, опальный охотник на демонов Тревор Бельмонт поднимает оружие против сил Дракулы, ему помогают волшебник Сифа Белнадес и сын Дракулы Алукард.

Качество: WEBRip
Формат: MKV
Видео: x264, 8 bit, 1920x1080, ~7500 Kbps, 23.976 fps
Аудио 1(int): JAP, AC3, 48000 Hz, 384 Kbps, 5.1 ch
Аудио 2(int): ENG, AC3, 48000 Hz, 384 Kbps, 5.1 ch
Субтитры (ext): RUS, ASS
Формат : MatroskaВерсия формата : Version 4 / Version 2Размер файла : 1,43 ГбайтПродолжительность : 25 м. 4 с.Режим общего битрейта : ПеременныйОбщий поток : 8149 Кбит/секДата кодирования : UTC 2017-07-12 22:13:30Программа кодирования : mkvmerge v9.6.0 ('Slave To Your Mind') 32bitБиблиотека кодирования : libebml v1.3.4 + libmatroska v1.4.5Attachments : OpenSans-Semibold.ttf

ВидеоИдентификатор : 1Формат : AVCФормат/Информация : Advanced Video CodecПрофиль формата : Main@L4Параметр CABAC формата : ДаПараметр ReFrames формата : 3 кадраИдентификатор кодека : V_MPEG4/ISO/AVCПродолжительность : 25 м. 3 с.Вид битрейта : ПеременныйБитрейт : 7500 Кбит/секМаксимальный битрейт : 11,2 Мбит/секШирина : 1920 пикселейВысота : 1080 пикселейСоотношение сторон : 16:9Режим частоты кадров : ПостоянныйЧастота кадров : 23,976 (24000/1001) кадра/секЦветовое пространство : YUVСубдискретизация насыщенности : 4:2:0Битовая глубина : 8 битТип развёртки : ПрогрессивнаяБит/(Пиксели*Кадры) : 0.151Размер потока : 1,29 Гбайт (91%)Библиотека кодирования : x264 core 118Настройки программы : cabac=1 / ref=3 / deblock=1:0:0 / analyse=0x1:0x111 / me=umh / subme=10 / psy=1 / psy_rd=1.00:0.00 / mixed_ref=1 / me_range=24 / chroma_me=1 / trellis=2 / 8x8dct=0 / cqm=0 / deadzone=21,11 / fast_pskip=1 / chroma_qp_offset=-2 / threads=8 / sliced_threads=0 / nr=0 / decimate=1 / interlaced=0 / bluray_compat=0 / constrained_intra=0 / bframes=2 / b_pyramid=0 / b_adapt=2 / b_bias=0 / direct=3 / weightb=1 / open_gop=0 / weightp=2 / keyint=48 / keyint_min=25 / scenecut=0 / intra_refresh=0 / rc_lookahead=0 / rc=2pass / mbtree=1 / bitrate=7500 / ratetol=1.0 / qcomp=0.50 / qpmin=6 / qpmax=51 / qpstep=4 / cplxblur=20.0 / qblur=0.5 / vbv_maxrate=11250 / vbv_bufsize=15000 / nal_hrd=vbr / ip_ratio=1.40 / aq=1:1.00Default : ДаForced : Нет

Аудио #1Идентификатор : 2Формат : AC-3Формат/Информация : Audio Coding 3Параметр Endianness формата : BigИдентификатор кодека : A_AC3Продолжительность : 25 м. 4 с.Вид битрейта : ПостоянныйБитрейт : 384 Кбит/секКаналы : 6 каналовРасположение каналов : Front: L C R, Side: L R, LFEЧастота : 48,0 КГцЧастота кадров : 31,250 кадров/сек (1536 spf)Битовая глубина : 16 битМетод сжатия : С потерямиРазмер потока : 68,9 Мбайт (5%)Язык : JapaneseServiceKind/String : Complete MainDefault : ДаForced : Нет

Аудио #2Идентификатор : 3Формат : AC-3Формат/Информация : Audio Coding 3Параметр Endianness формата : BigИдентификатор кодека : A_AC3Продолжительность : 25 м. 4 с.Вид битрейта : ПостоянныйБитрейт : 384 Кбит/секКаналы : 6 каналовРасположение каналов : Front: L C R, Side: L R, LFEЧастота : 48,0 КГцЧастота кадров : 31,250 кадров/сек (1536 spf)Битовая глубина : 16 битМетод сжатия : С потерямиРазмер потока : 68,9 Мбайт (5%)Заголовок : English 5.1Язык : EnglishServiceKind/String : Complete MainDefault : НетForced : Нет
01. Witchbottle
02. Necropolis
Ссылка на предыдущие и альтернативные раздачи

Трекер:  [ 15-Июл-2017 15:54 ]

  

Скачать .torrent

Размер .torrent файла 3 KB


Размер: 2.17 GB
Хэш (hash) релиза: 7200e663dca43104db7a4fe4eb7f6e29fbafedbf
Подписка на обновления:

Еще никто не оставлял запись к записи скачать торрент Каслвания Castlevania . Будь первым!

!Обратная связь