Скачать через торрент музыку лето убийца Summertime Killer бесплатно без регистрации torrent

Если у вас наблюдаются проблемы со скриншотами, переходом по ссылками, скачиванием торрентов - проблемы в блокировщике рекламы AdBlock. #хорошегоДня!


Статистика раздачи
Размер:  284 MB   |    Зарегистрирован:  2 месяца 8 дней   |    .torrent скачан:  25 раз   |   
Раздают:  1  
   
Загрузка...
 
Автор Сообщение

Galfimbul

avatar Galfimbul


лето убийца / Summertime Killer

Название альбома: Colonna Sonora Originale Del Film
Жанр: Score / Soundtrack
Композитор: Luis Bacalov
Год выпуска диска: 2016
Год выпуска фильма: 1972
Страна-производитель диска: Korea
Издатель (лейбл): Beatball Music (EMI)
Номер по каталогу: BEAT 75
Аудиокодек: FLAC (*.flac)
Тип рипа: image+.cue
Битрейт аудио: lossless
Продолжительность: 00:47:57
Источник: собственный рип
Наличие сканов в содержимом раздачи: да
Треклист:
01. Run And Run by Country Lovers
02. Like A Play by Country Lovers
03. The Summertime Killer
04. Motorcycle Circus
05. Lisboa's Tram
06. The House On The Lake
07. Like A Play
08. Run And Run by Country Lovers
09. The House On The Lake (#2)
10. Run And Run (#2)
11. The House On The Lake (#3)
12. The Summertime Killer (Lounge)
13. The House On The Lake (#4)
14. Like A Play (#2)
15. The House On The Lake (#5)
16. Run And Run (#3)
17. Like A Play (#3)
18. The House On The Lake (#6)
19. Like A Play (#4)
20. The House On the Lake (#7)
21. Like A Play (#5)
Exact Audio Copy V1.3 from 2. September 2016

EAC extraction logfile from 12. July 2017, 1:50

Various / Summertime Killer - Colonna Sonora Originale Del Film

Used drive : ATAPI iHAS124 F Adapter: 1 ID: 1

Read mode : SecureUtilize accurate stream : YesDefeat audio cache : YesMake use of C2 pointers : No

Read offset correction : 6Overread into Lead-In and Lead-Out : NoFill up missing offset samples with silence : YesDelete leading and trailing silent blocks : NoNull samples used in CRC calculations : YesUsed interface : Native Win32 interface for Win NT & 2000

Used output format : User Defined EncoderSelected bitrate : 1024 kBit/sQuality : HighAdd ID3 tag : NoCommand line compressor : C:\Program Files (x86)\Exact Audio Copy\Flac\flac.exeAdditional command line options : -V -6 %source% -o %dest%

TOC of the extracted CD

Track | Start | Length | Start sector | End sector --------------------------------------------------------- 1 | 0:00.00 | 3:14.59 | 0 | 14608 2 | 3:14.59 | 3:01.61 | 14609 | 28244 3 | 6:16.45 | 3:30.09 | 28245 | 44003 4 | 9:46.54 | 3:40.24 | 44004 | 60527 5 | 13:27.03 | 2:05.12 | 60528 | 69914 6 | 15:32.15 | 5:19.61 | 69915 | 93900 7 | 20:52.01 | 3:34.00 | 93901 | 109950 8 | 24:26.01 | 3:20.06 | 109951 | 124956 9 | 27:46.07 | 1:06.30 | 124957 | 129936 10 | 28:52.37 | 1:01.01 | 129937 | 134512 11 | 29:53.38 | 2:10.08 | 134513 | 144270 12 | 32:03.46 | 4:15.24 | 144271 | 163419 13 | 36:18.70 | 0:58.66 | 163420 | 167835 14 | 37:17.61 | 1:03.41 | 167836 | 172601 15 | 38:21.27 | 1:16.34 | 172602 | 178335 16 | 39:37.61 | 2:24.68 | 178336 | 189203 17 | 42:02.54 | 1:13.33 | 189204 | 194711 18 | 43:16.12 | 0:50.23 | 194712 | 198484 19 | 44:06.35 | 1:30.39 | 198485 | 205273 20 | 45:36.74 | 1:14.14 | 205274 | 210837 21 | 46:51.13 | 1:14.49 | 210838 | 216436

Range status and errors

Selected range

Filename D:\WORKING\Summertime Killer - Colonna Sonora Originale Del Film.wav

Peak level 98.8 % Extraction speed 5.8 X Range quality 100.0 % Test CRC 0060D623 Copy CRC 0060D623 Copy OK

No errors occurred

AccurateRip summary

Track 1 not present in databaseTrack 2 not present in databaseTrack 3 not present in databaseTrack 4 not present in databaseTrack 5 not present in databaseTrack 6 not present in databaseTrack 7 not present in databaseTrack 8 not present in databaseTrack 9 not present in databaseTrack 10 not present in databaseTrack 11 not present in databaseTrack 12 not present in databaseTrack 13 not present in databaseTrack 14 not present in databaseTrack 15 not present in databaseTrack 16 not present in databaseTrack 17 not present in databaseTrack 18 not present in databaseTrack 19 not present in databaseTrack 20 not present in databaseTrack 21 not present in database

None of the tracks are present in the AccurateRip database

End of status report

---- CUETools DB Plugin V2.1.6

[CTDB TOCID: Reg0t2CwSfP7_Unq5Slewpmm8iI-] foundSubmit result: Reg0t2CwSfP7_Unq5Slewpmm8iI- has been confirmedTrack | CTDB Status 1 | (2/2) Accurately ripped 2 | (2/2) Accurately ripped 3 | (1/2) Accurately ripped 4 | (2/2) Accurately ripped 5 | (2/2) Accurately ripped 6 | (1/2) Accurately ripped 7 | (2/2) Accurately ripped 8 | (2/2) Accurately ripped 9 | (2/2) Accurately ripped 10 | (2/2) Accurately ripped 11 | (1/2) Accurately ripped 12 | (1/2) Accurately ripped 13 | (2/2) Accurately ripped 14 | (1/2) Accurately ripped 15 | (2/2) Accurately ripped 16 | (1/2) Accurately ripped 17 | (1/2) Accurately ripped 18 | (2/2) Accurately ripped 19 | (2/2) Accurately ripped 20 | (2/2) Accurately ripped 21 | (1/2) Accurately ripped

==== Log checksum 8138B5909527343EF4270B3BBC06A69B947F82681C8A77D465BD031BDC242669 ====


Трекер:  [ 14-Июл-2017 15:36 ]

  

Скачать .torrent

Размер .torrent файла 12 KB


Размер: 284 MB
Хэш (hash) релиза: db28440b6a5246c793409383404772dab325e152

Еще никто не оставлял запись к записи скачать торрент лето убийца Summertime Killer . Будь первым!

!Обратная связь