Скачать через торрент Медвежьи истории The Berenstain Bears Фильм бесплатно в хорошем качестве torrent

Скачивайте на UnionPeer.org фильмы через торрент без регистрации. Новинки кино в хорошем качестве через торрент. На UnionPeer.org можно скачать через торрент фильмы 2014 и 2015 годов. Самые новые фильмы.

Скачать торрент Медвежьи истории The Berenstain Bears бесплатно через .torrent фильм мультфильм сериал

Если у вас наблюдаются проблемы со скриншотами, переходом по ссылками, скачиванием торрентов - проблемы в блокировщике рекламы AdBlock. #хорошегоДня!


Статистика раздачи
Размер:  759 MB   |    Зарегистрирован:  3 месяца 5 дней   |    .torrent скачан:  23 раза   |   
Раздают:  1  
   
Загрузка...
 
Автор Сообщение

Galfimbul

avatar Galfimbul


Медвежьи истории / The Berenstain Bears

Страна: США, Австралия
Жанр: мультсериал
Продолжительность серии: 00:12::00
Год выпуска: 1985 – 1987
Перевод: Профессиональный (дублированный)
Русские субтитры: нет

Режиссёр: Базз Потамкин
Роли озвучивали: Дэвид Менденхолл, Рут Бацци, Брайан Каммингс, Кристина Лэндж, Рон Пардо, Джош Родин, Фрэнк Уэлкер

Описание: Истории приключений медвежьей семьи и их друзей по книгам Stan and Jan Berenstain

Список серий:
3. Мишки и воздушный змей
4. Мишки и троянская тыква
5. Мишки и старый дом с приведениями
10. Мишки и пропавшая тыква
23. Мишки и самая жуткая тыква

Ссылка на предыдущие и альтернативные раздачи: ...The%20Berenstain%20Bears
Качество: DVDRip
Формат: AVI
Видео: MPEG, 640x480, 29.97fps,~ 1600kbps
Аудио: Русский, MPEG, 2 ch, 128 kbps, 44,1 kHz
Субтитры: отсутствуют
ОбщееПолное имя : C:\Documents and Settings\Admin\Мои документы\Downloads\The Berenstain bears\s1e03 Go Fly a Kite.aviФормат : AVIФормат/Информация : Audio Video InterleaveРазмер файла : 150 МбайтПродолжительность : 12 м.Общий поток : 1742 Кбит/секПрограмма кодирования : Lavf56.36.100

ВидеоИдентификатор : 0Формат : xvidИдентификатор кодека : xvidПродолжительность : 12 м.Битрейт : 1600 Кбит/секШирина : 640 пикселейВысота : 480 пикселейСоотношение сторон : 4:3Частота кадров : 29,970 кадров/секБит/(Пиксели*Кадры) : 0.174Размер потока : 138 Мбайт (92%)

АудиоИдентификатор : 1Формат : MPEG AudioВерсия формата : Version 1Профиль формата : Layer 3Режим : Joint stereoИдентификатор кодека : 55Идентификатор кодека/Подсказка : MP3Продолжительность : 12 м.Вид битрейта : ПостоянныйБитрейт : 128 Кбит/секКаналы : 2 каналаЧастота : 44,1 КГцМетод сжатия : С потерямиРазмер потока : 11,0 Мбайт (7%)Выравнивание : Соединение по промежуткамПродолжительность промежутка : 26 мс. (0,78 видеокадр)Время предзагрузки промежутка : 26 мс.Библиотека кодирования : LAME3.99.5


Трекер:  [ 12-Июл-2017 14:54 ]

  

Скачать .torrent

Размер .torrent файла 15 KB


Размер: 759 MB
Хэш (hash) релиза: 54c351a28f0ac6070d3ba80cab58409c32fe53bd
Подписка на обновления:

Еще никто не оставлял запись к записи скачать торрент Медвежьи истории The Berenstain Bears . Будь первым!

!Обратная связь