Скачать через торрент Демон озера Водоём Фильм бесплатно в хорошем качестве torrent

Скачивайте на UnionPeer.org фильмы через торрент без регистрации. Новинки кино в хорошем качестве через торрент. На UnionPeer.org можно скачать через торрент фильмы 2014 и 2015 годов. Самые новые фильмы.

Скачать торрент Демон озера Водоём бесплатно через .torrent фильм мультфильм сериал

Если у вас наблюдаются проблемы со скриншотами, переходом по ссылками, скачиванием торрентов - проблемы в блокировщике рекламы AdBlock. #хорошегоДня!


Статистика раздачи
Размер:  1.46 GB   |    Зарегистрирован:  4 месяца 9 дней   |    .torrent скачан:  38 раз   |   
Раздают:  1  
   
Загрузка...
 
Автор Сообщение

Galfimbul

avatar Galfimbul


Демон озера / Водоём / Body of Water / Syvälle salattu
Страна: Финляндия
Жанр: драма, психологический триллер
Год выпуска: 2011
Продолжительность: 01:44:08

Перевод: Любительский (многоголосый закадровый) - «Sakura»
Субтитры: русские. Автор - Simon
Оригинальная аудиодорожка: финская

Режиссер: Юна Тена / Joona Tena

В ролях: Криста Косонен, Кай Лехтинен, Вильями Нойонен, Петер Францен, Ристо Аалтонен, Кари Хиеталахти, Илка Вилли, Katriina Hyvärinen, Pentti Korhonen, Пану Вауконен.

Описание: Джулию, мать-одиночку, юриста по экологическим вопросам, приглашают поработать в её родную деревню, рядом с которой находится озеро. Согласно средневековой легенде, давным-давно обитавший в нём злой дух выменял у жившего неподалеку мельника его старшего сына в обмен на богатство и славу. Странные и пугающие видения начинают посещать Джулию после приезда на это место. Постепенно она убеждается в том, что и её собственный отец решился на сделку с демоном, и для достижения богатства и величия готов пожертвовать её маленьким сыном Нико.



Доп. информация: Исходник видеоряда - BDRip 720p. Аудиодорожка позаимствована из раздачи Delonnn.
Релиз осуществлён студией «Sakura». Текст читали Samurai 48, Кристина 95 и Milki Bond (Нико).
Руководитель проекта - Delonnn
HDRip, синхронизация русской аудиодоржки и корректировка тайминга субтитров - Arle-kino



Качество видео: HDRip
Формат видео: AVI

Видео: 720x304 (2.37:1), 23.976 fps, XviD build 50 ~1350 kbps avg, 0.26 bit/pixel
Аудио 1: 48 kHz, AC3 Dolby Digital, 2/0 (L,R) ch, ~192 kbps - Rus
Аудио 2: 48 kHz, AC3 Dolby Digital, 3/2 (L,C,R,l,r) + LFE ch, ~448 kbps - Fin
Формат субтитров: softsub (SRT)
General
Complete name : D:\Public\Syvälle salattu (2011)\Syvälle salattu (2011) HDRip [rus fin].avi
Format : AVI
Format/Info : Audio Video Interleave
File size : 1.46 GiB
Duration : 1h 44mn
Overall bit rate : 2 005 Kbps
Writing application : VirtualDubMod 1.5.10.2 (build 2540/release)
Writing library : VirtualDubMod build 2540/release

Video
ID : 0
Format : MPEG-4 Visual
Format profile : Advanced Simple@L5
Format settings, BVOP : 1
Format settings, QPel : No
Format settings, GMC : No warppoints
Format settings, Matrix : Default (MPEG)
Codec ID : XVID
Codec ID/Hint : XviD
Duration : 1h 44mn
Bit rate : 1 351 Kbps
Width : 720 pixels
Height : 304 pixels
Display aspect ratio : 2.35:1
Frame rate : 23.976 fps
Color space : YUV
Chroma subsampling : 4:2:0
Bit depth : 8 bits
Scan type : Progressive
Compression mode : Lossy
Bits/(Pixel*Frame) : 0.257
Stream size : 1 006 MiB (67%)
Writing library : XviD 1.2.1 (UTC 2008-12-04)

Audio #1
ID : 1
Format : AC-3
Format/Info : Audio Coding 3
Mode extension : CM (complete main)
Codec ID : 2000
Duration : 1h 44mn
Bit rate mode : Constant
Bit rate : 192 Kbps
Channel(s) : 2 channels
Channel positions : Front: L R
Sampling rate : 48.0 KHz
Bit depth : 16 bits
Compression mode : Lossy
Stream size : 143 MiB (10%)
Alignment : Split accross interleaves
Interleave, duration : 42 ms (1.00 video frame)
Interleave, preload duration : 500 ms
Title : Rus

Audio #2
ID : 2
Format : AC-3
Format/Info : Audio Coding 3
Mode extension : CM (complete main)
Codec ID : 2000
Duration : 1h 44mn
Bit rate mode : Constant
Bit rate : 448 Kbps
Channel(s) : 6 channels
Channel positions : Front: L C R, Side: L R, LFE
Sampling rate : 48.0 KHz
Bit depth : 16 bits
Compression mode : Lossy
Stream size : 334 MiB (22%)
Alignment : Split accross interleaves
Interleave, duration : 42 ms (1.00 video frame)
Interleave, preload duration : 500 ms
Title : Fin


Трекер:  [ 11-Июл-2017 21:01 ]

  

Скачать .torrent

Размер .torrent файла 15 KB


Размер: 1.46 GB
Хэш (hash) релиза: d726436aac1455d8d685172bdbdca98221d49376
Подписка на обновления:

Еще никто не оставлял запись к записи скачать торрент Демон озера Водоём . Будь первым!

!Обратная связь