Скачать через торрент Кастлвания Castlevania Фильм бесплатно в хорошем качестве torrent

Скачивайте на UnionPeer.org фильмы через торрент без регистрации. Новинки кино в хорошем качестве через торрент. На UnionPeer.org можно скачать через торрент фильмы 2014 и 2015 годов. Самые новые фильмы.

Скачать торрент Кастлвания Castlevania бесплатно через .torrent фильм мультфильм сериал

Если у вас наблюдаются проблемы со скриншотами, переходом по ссылками, скачиванием торрентов - проблемы в блокировщике рекламы AdBlock. #хорошегоДня!


Статистика раздачи
Размер:  1.38 GB   |    Зарегистрирован:  1 месяц 11 дней   |    .torrent скачан:  41 раз   |   
Раздают:  1  
   
Загрузка...
 
Автор Сообщение

Galfimbul

avatar Galfimbul


Кастлвания
Страна: США
Жанр: мультфильм, ужасы, фэнтези, боевик, приключения
Продолжительность: ~25 мин.
Год выпуска: 2017
Перевод: Субтитры
Русские субтитры: Notabenoid (SuperJoe, Witcher20)Режиссёр: Сэм Диц / Sam Deats
Роли озвучивали: Ричард Армитедж, Тони Амендола, Мэтт Фрюэр, Эмили Суоллоу, Джеймс Кэллис, Алехандра Рейносо, Грэм МакТавишОписание: Смелая девушка Лиза приходит прямиком в замок графа Дракулы, чтобы тот поделился с ней всеми доступными научными знаниями. У неё благородная цель — девушка хочет стать лучшим врачом и облегчить жизнь людей, но местные не оценили рвения, и уже через год Лизу сжигают на костре за колдовство. Взбешённый Дракула решает мстить за любимую — он даёт жителям города год, а затем насылает на них полчища демонов из ада.
Сезон 1:
1. Ведьма
2. Некрополь
3. Лабиринт
4. Монумент
Сэмпл

Качество: WEBRip 720p
Формат: MKV
Видео: AVC, 1280x720, 23,976 fps, 2 583 Kbps
Аудио: AC-3, 48.0 KHz, 6ch, 384 Kbps
Субтитры:

SRT, Русские, Внешние
SRT, Английские, В составе контейнера
GeneralUnique ID : 229603219582113495231918283855774263178 (0xACBBF8BA425FF5BC85E484A0F602A78A)Complete name : C:\Users\Admin\Downloads\Castlevania.S01E01.720p.WEBRip.x264-STRiFE[rarbg]\castlevania.s01e01.720p.webrip.x264-strife.mkvFormat : MatroskaFormat version : Version 4 / Version 2File size : 543 MiBDuration : 25mn 4sOverall bit rate : 3 027 KbpsEncoded date : UTC 2017-07-07 07:24:08Writing application : mkvmerge v8.3.0 ('Over the Horizon') 64bitWriting library : libebml v1.3.1 + libmatroska v1.4.2DURATION : 00:24:33.305000000NUMBER_OF_FRAMES : 369NUMBER_OF_BYTES : 9975_STATISTICS_WRITING_APP : mkvmerge v8.3.0 ('Over the Horizon') 64bit_STATISTICS_WRITING_DATE_UT : 2017-07-07 07:24:08_STATISTICS_TAGS : BPS DURATION NUMBER_OF_FRAMES NUMBER_OF_BYTES

VideoID : 1Format : AVCFormat/Info : Advanced Video CodecFormat profile : High@L4.1Format settings, CABAC : YesFormat settings, ReFrames : 5 framesCodec ID : V_MPEG4/ISO/AVCDuration : 25mn 4sBit rate : 2 583 KbpsWidth : 1 280 pixelsHeight : 720 pixelsDisplay aspect ratio : 16:9Frame rate mode : ConstantFrame rate : 23.976 fpsColor space : YUVChroma subsampling : 4:2:0Bit depth : 8 bitsScan type : ProgressiveBits/(Pixel*Frame) : 0.117Stream size : 463 MiB (85%)Writing library : x264 core 152 r2851 ba24899Encoding settings : cabac=1 / ref=5 / deblock=1:1:1 / analyse=0x3:0x113 / me=umh / subme=8 / psy=1 / psy_rd=1.00:0.15 / mixed_ref=1 / me_range=16 / chroma_me=1 / trellis=2 / 8x8dct=1 / cqm=0 / deadzone=21,11 / fast_pskip=0 / chroma_qp_offset=-2 / threads=12 / lookahead_threads=2 / sliced_threads=0 / nr=0 / decimate=1 / interlaced=0 / bluray_compat=0 / constrained_intra=0 / bframes=3 / b_pyramid=2 / b_adapt=1 / b_bias=0 / direct=3 / weightb=1 / open_gop=0 / weightp=2 / keyint=240 / keyint_min=23 / scenecut=40 / intra_refresh=0 / rc_lookahead=50 / rc=crf / mbtree=1 / crf=18.0 / qcomp=0.60 / qpmin=0 / qpmax=69 / qpstep=4 / ip_ratio=1.40 / aq=3:0.80Language : EnglishDefault : YesForced : NoDURATION : 00:25:03.627000000NUMBER_OF_FRAMES : 36051NUMBER_OF_BYTES : 496579103_STATISTICS_WRITING_APP : mkvmerge v8.3.0 ('Over the Horizon') 64bit_STATISTICS_WRITING_DATE_UT : 2017-07-07 07:24:08_STATISTICS_TAGS : BPS DURATION NUMBER_OF_FRAMES NUMBER_OF_BYTES

AudioID : 2Format : AC-3Format/Info : Audio Coding 3Mode extension : CM (complete main)Format settings, Endianness : BigCodec ID : A_AC3Duration : 25mn 4sBit rate mode : ConstantBit rate : 384 KbpsChannel(s) : 6 channelsChannel positions : Front: L C R, Side: L R, LFESampling rate : 48.0 KHzCompression mode : LossyStream size : 68.9 MiB (13%)Language : EnglishDefault : YesForced : No

TextID : 3Format : UTF-8Codec ID : S_TEXT/UTF8Codec ID/Info : UTF-8 Plain TextLanguage : EnglishDefault : NoForced : No
Предыдущие и альтернативные раздачи

Трекер:  [ 11-Июл-2017 19:54 ]

  

Скачать .torrent

Размер .torrent файла 15 KB


Размер: 1.38 GB
Хэш (hash) релиза: 9c6ee4ae5a95782f64e975c9da12aeff1417c538
Подписка на обновления:

Еще никто не оставлял запись к записи скачать торрент Кастлвания Castlevania . Будь первым!

!Обратная связь