Скачать через торрент [VIDEO] Бонни и Клайд по-итальянски Bonnie e Clyde allitaliana бесплатно русская версия torrent активатор

Если у вас наблюдаются проблемы со скриншотами, переходом по ссылками, скачиванием торрентов - проблемы в блокировщике рекламы AdBlock. #хорошегоДня!


Статистика раздачи
Размер:  812 MB   |    Зарегистрирован:  1 месяц 14 дней   |    .torrent скачан:  22 раза   |   
Раздают:  1  
   
Загрузка...
 
Автор Сообщение

Galfimbul

avatar Galfimbul


Бонни и Клайд по-итальянски / Bonnie e Clyde all'italiana
Год выпуска: 1982
Страна: Италия
Жанр: комедия
Продолжительность: 01:33:43
Перевод: русский Профессиональный (многоголосый, закадровый)
Субтитры: нетРежиссер: Стено / StenoВ ролях: Паоло Вилладжо /Paolo Villaggio, Орнелла Мути /Ornella Muti, Жан Сорель /Jean Sorel, Фердинандо Муроло /Ferdinando Murolo, Антонио Аллокка /Antonio Allocca, Антонио Базиле /Antonio Basile и другие .Описание: Банда гангстеров, напавшая на банк, берет в заложники Лео, продавца сувениров, невезучего малого, постоянно влипающего в разные истории, и Джиаду, молодую девицу, потерявшую очки и не видевшую дальше своего носа.

По дороге машина перевернулась, бандиты без сознания, а Лео прихватывает с собой не только Джиаду, но и чемодан с деньгами. Теперь за ними гонятся гангстеры и полиция, считающая их грабителями. Релиз группы Качество: DVDRip / рип с DVD5
Формат: MP4
Видео кодек: H.264
Аудио кодек: AAC
Видео: 464x360 AR:1.29 1080 kbps 25 fps
Аудио: [Russian] 2ch 48 kHz 128 kbps [MVO] Профессиональный (многоголосый, закадровый)
avs [info]: 464x360p 1:1 @ 25/1 fps (cfr)
x264 [info]: using SAR=1/1
x264 [info]: using cpu capabilities: MMX2 SSE2Fast SSSE3 SSE4.2 AVX FMA3 AVX2 LZCNT BMI2
x264 [info]: profile High, level 4.1

x264 [info]: frame I:900 Avg QP:19.41 size: 29142
x264 [info]: frame P:27889 Avg QP:22.33 size: 11105
x264 [info]: frame B:111788 Avg QP:24.28 size: 3786
x264 [info]: consecutive B-frames: 1.0% 1.2% 6.5% 20.3% 13.6% 38.0% 12.6% 2.7% 1.7% 1.6% 0.8%
x264 [info]: mb I I16..4: 3.8% 72.7% 23.5%
x264 [info]: mb P I16..4: 0.2% 9.3% 1.5% P16..4: 31.3% 37.8% 16.0% 3.0% 0.4% skip: 0.4%
x264 [info]: mb B I16..4: 0.0% 0.7% 0.1% B16..8: 38.2% 23.8% 4.3% direct: 9.2% skip:23.6% L0:37.4% L1:39.7% BI:23.0%
x264 [info]: 8x8 transform intra:82.2% inter:56.0%
x264 [info]: direct mvs spatial:97.5% temporal:2.5%
x264 [info]: coded y,uvDC,uvAC intra: 96.7% 88.7% 53.4% inter: 38.7% 34.3% 4.5%
x264 [info]: i16 v,h,dc,p: 21% 25% 6% 47%
x264 [info]: i8 v,h,dc,ddl,ddr,vr,hd,vl,hu: 15% 11% 7% 8% 11% 11% 13% 11% 14%
x264 [info]: i4 v,h,dc,ddl,ddr,vr,hd,vl,hu: 14% 13% 3% 7% 13% 12% 14% 10% 14%
x264 [info]: i8c dc,h,v,p: 29% 26% 22% 23%
x264 [info]: Weighted P-Frames: Y:27.9% UV:14.1%
x264 [info]: ref P L0: 41.0% 14.5% 17.9% 7.5% 6.2% 4.6% 4.6% 2.9% 0.8% 0.0%
x264 [info]: ref B L0: 78.1% 11.1% 4.7% 2.7% 1.9% 1.2% 0.4%
x264 [info]: ref B L1: 95.5% 4.5%
x264 [info]: kb/s:1080.10

encoded 140577 frames, 27.51 fps, 1080.10 kb/s
GeneralComplete name : D:\Torrents\Bonnie e Clyde all'italiana.1982.DVDRip.x264.640x.rip by Frost O.S.mp4Format : MPEG-4Format profile : Base MediaCodec ID : isom (isom)File size : 812 MiBDuration : 1 h 33 minOverall bit rate mode : VariableOverall bit rate : 1 212 kb/sEncoded date : UTC 2017-07-08 19:35:57Tagged date : UTC 2017-07-08 19:35:57Writing application : My MP4Box GUI 0.6.0.6

VideoID : 1Format : AVCFormat/Info : Advanced Video CodecFormat profile : High@L4.1Format settings, CABAC : YesFormat settings, ReFrames : 8 framesCodec ID : avc1Codec ID/Info : Advanced Video CodingDuration : 1 h 33 minBit rate : 1 080 kb/sMaximum bit rate : 2 824 kb/sWidth : 464 pixelsHeight : 360 pixelsDisplay aspect ratio : 1.289Frame rate mode : ConstantFrame rate : 25.000 FPSColor space : YUVChroma subsampling : 4:2:0Bit depth : 8 bitsScan type : ProgressiveBits/(Pixel*Frame) : 0.259Stream size : 724 MiB (89%)Title : Bonnie e Clyde all'italiana.1982.DVDRip.x264.640x.rip by Frost O.S.mp4Writing library : x264 core 148 r2744 b97ae06Encoding settings : cabac=1 / ref=8 / deblock=1:-2:-1 / analyse=0x3:0x133 / me=umh / subme=11 / psy=1 / psy_rd=1.10:0.20 / mixed_ref=1 / me_range=48 / chroma_me=1 / trellis=2 / 8x8dct=1 / cqm=0 / deadzone=21,11 / fast_pskip=0 / chroma_qp_offset=-3 / threads=6 / lookahead_threads=1 / sliced_threads=0 / nr=0 / decimate=0 / interlaced=0 / bluray_compat=0 / constrained_intra=0 / bframes=10 / b_pyramid=2 / b_adapt=2 / b_bias=0 / direct=3 / weightb=1 / open_gop=0 / weightp=2 / keyint=250 / keyint_min=25 / scenecut=40 / intra_refresh=0 / rc=2pass / mbtree=0 / bitrate=1080 / ratetol=1.0 / qcomp=0.60 / qpmin=0 / qpmax=69 / qpstep=4 / cplxblur=20.0 / qblur=0.5 / ip_ratio=1.40 / pb_ratio=1.30 / aq=2:0.50Encoded date : UTC 2017-07-08 19:17:16Tagged date : UTC 2017-07-08 19:36:43Color range : LimitedColor primaries : BT.601 NTSCTransfer characteristics : BT.601Matrix coefficients : BT.601

AudioID : 2Format : AACFormat/Info : Advanced Audio CodecFormat profile : LCCodec ID : 40Duration : 1 h 33 minBit rate mode : VariableBit rate : 128 kb/sMaximum bit rate : 132 kb/sChannel(s) : 2 channelsChannel positions : Front: L RSampling rate : 48.0 kHzFrame rate : 46.875 FPS (1024 spf)Compression mode : LossyStream size : 85.8 MiB (11%)Title : Russian / MVOEncoded date : UTC 2017-07-08 19:36:42Tagged date : UTC 2017-07-08 19:36:43


Трекер:  [ 09-Июл-2017 09:12 ]

  

Скачать .torrent

Размер .torrent файла 16 KB


Размер: 812 MB
Хэш (hash) релиза: ceba45ff416af94a30cc7e1d317d40d227cbe5ec

Еще никто не оставлял запись к записи скачать торрент [VIDEO] Бонни и Клайд по-итальянски Bonnie e Clyde allitaliana . Будь первым!

!Обратная связь