Скачать через торрент [VIDEO] Логан Logan бесплатно русская версия torrent активатор

Если у вас наблюдаются проблемы со скриншотами, переходом по ссылками, скачиванием торрентов - проблемы в блокировщике рекламы AdBlock. #хорошегоДня!


Статистика раздачи
Размер:  627 MB   |    Зарегистрирован:  3 месяца 9 дней   |    .torrent скачан:  27 раз   |   
Раздают:  1  
   
Загрузка...
 
Автор Сообщение

Galfimbul

avatar Galfimbul


Логан / Logan[Noir Edition]«Его время пришло»
Год выпуска: 2017
Страна: США / 20th Century Fox Film Corporation
Жанр: фантастика, боевик, триллер, драма
Продолжительность: 02:17:23
Перевод: Русский Профессиональный (полное дублирование) Blu-ray EUR
Субтитры: нетРежиссер: Джеймс Мэнголд / James MangoldВ ролях: Хью Джекман, Патрик Стюарт, Дафни Кин, Бойд Холбрук, Стивен Мерчант, Элизабет Родригес, Ричард Э. Грант, Эрик Ла Салль, Элиз Нил, Куинси Фаус и другие .Описание: В недалеком будущем уставший от жизни Логан заботится о больном профессоре Икс, который прячется неподалеку от мексиканской границы. Но Логан больше не сможет скрывать свое прошлое, когда встретится с юным мутантом, которого преследуют темные силы. Релиз группы Качество: HDRip / рип с BDRip 720p
Формат: MP4
Видео кодек: XviD
Аудио кодек: AAC
Видео: 480х200 AR:2.40 506 kbps 23.976 fps
Аудио: [Russian] 2ch 48 kHz 128 kbps - Профессиональный (полное дублирование) Blu-ray EUR
GeneralComplete name : D:\Torrents\Logan.[Noir Edition].2017.HDRip.XviD.480x.rip by Frost O.S.mp4Format : MPEG-4Format profile : Base MediaCodec ID : isom (isom)File size : 627 MiBDuration : 2 h 17 minOverall bit rate mode : VariableOverall bit rate : 638 kb/sEncoded date : UTC 2017-07-08 14:16:07Tagged date : UTC 2017-07-08 14:16:07Writing application : My MP4Box GUI 0.6.0.6

VideoID : 1Format : MPEG-4 VisualFormat profile : Advanced Simple@L5Format settings, BVOP : YesFormat settings, QPel : YesFormat settings, GMC : No warppointsFormat settings, Matrix : CustomCodec ID : 20Duration : 2 h 17 minBit rate mode : VariableBit rate : 506 kb/sMaximum bit rate : 3 348 kb/sWidth : 480 pixelsHeight : 200 pixelsDisplay aspect ratio : 2.40:1Frame rate mode : ConstantFrame rate : 23.976 (24000/1001) FPSColor space : YUVChroma subsampling : 4:2:0Bit depth : 8 bitsScan type : ProgressiveCompression mode : LossyBits/(Pixel*Frame) : 0.220Stream size : 497 MiB (79%)Title : Logan.[Noir Edition].2017.HDRip.XviD.480x.rip by Frost O.S.mp4Writing library : XviD 1.2.1 (UTC 2008-12-04)Encoded date : UTC 2017-07-08 14:16:07Tagged date : UTC 2017-07-08 14:16:29

AudioID : 2Format : AACFormat/Info : Advanced Audio CodecFormat profile : LCCodec ID : 40Duration : 2 h 17 minBit rate mode : VariableBit rate : 128 kb/sMaximum bit rate : 138 kb/sChannel(s) : 2 channelsChannel positions : Front: L RSampling rate : 48.0 kHzFrame rate : 46.875 FPS (1024 spf)Compression mode : LossyStream size : 126 MiB (20%)Title : Russian / Dub, Blu-ray EUREncoded date : UTC 2017-07-08 14:16:23Tagged date : UTC 2017-07-08 14:16:29


Трекер:  [ 08-Июл-2017 17:42 ]

  

Скачать .torrent

Размер .torrent файла 12 KB


Размер: 627 MB
Хэш (hash) релиза: abb030bb7ac5704dd80f2998c5f35e912c613649

Торренты, похожие на [VIDEO] Логан Logan скачать торрент

Форум Название Автор Размер S L Добавлен
Видео (Фильмы/Клипы) ·· [VIDEO] Логан / Logan (Джеймс Мэнголд / James Mangold) [2017, фантастика, боевик, триллер, драма, HDRip] [3GP, 320x] [Noir Edition] Dub Blu-ray EUR Galfimbul 495306064472 MB 0 0 1499525045

17:44

8-Июл-17

Видео (Фильмы/Клипы) ·· [VIDEO] Логан / Logan (Джеймс Мэнголд / James Mangold) [2017, фантастика, боевик, триллер, драма, BDRip] [MP4, 960x] [Noir Edition] Dub (Rus, Ukr), VO Есарев, VO Чадов, Original, Sub (rus, ukr, eng) Galfimbul 22153807482.06 GB 0 0 1499525024

17:43

8-Июл-17

Видео (Фильмы/Клипы) ·· [VIDEO] Логан / Logan (Джеймс Мэнголд / James Mangold) [2017, фантастика, боевик, триллер, драма, BDRip] [MP4, 960x] Dub (Rus, Ukr), VO Есарев, VO Чадов, Original, Sub (rus, ukr, eng) Galfimbul 23221970962.16 GB 0 0 1498934559

21:42

1-Июл-17

Видео (Фильмы/Клипы) ·· [VIDEO] Логан / Logan (Джеймс Мэнголд / James Mangold) [2017, фантастика, боевик, триллер, драма, HDRip] [3GP, 320x] Dub Blu-ray EUR Galfimbul 495183804472 MB 0 0 1498932812

21:13

1-Июл-17

Видео (Фильмы/Клипы) ·· [VIDEO] Демоны Деборы Логан / The Taking of Deborah Logan (Адам Робител / Adam Robitel) [2014, США, ужасы, триллер, HDRip][MP4, 480x] Dub Galfimbul 433873992414 MB 0 0 1438335074

12:31

31-Июл-15

Видео (Фильмы/Клипы) ·· [VIDEO] Демоны Деборы Логан / The Taking of Deborah Logan (Адам Робител / Adam Robitel) [2015, США, ужасы, триллер, HDRip][MP4, 480x] Dub Galfimbul 433910274414 MB 0 0 1435042898

10:01

23-Июн-15

Еще никто не оставлял запись к записи скачать торрент [VIDEO] Логан Logan . Будь первым!

!Обратная связь