Скачать через торрент Добро пожаловать на паркет Ballroom e Youkoso бесплатно Аниме Все серии на русском torrent

Если у вас наблюдаются проблемы со скриншотами, переходом по ссылками, скачиванием торрентов - проблемы в блокировщике рекламы AdBlock. #хорошегоДня!


Статистика раздачи
Размер:  273 MB   |    Зарегистрирован:  5 месяцев 3 дня   |    .torrent скачан:  23 раза   |   
Раздают:  1  
   
Загрузка...
 
Автор Сообщение

Galfimbul

avatar Galfimbul


Добро пожаловать на паркет
Ballroom e Youkoso
Welcome to the Ballroom
ボールルームへようこそ

Страна: Япония
Год выпуска: 2017 г.
Жанр: комедия, романтика, драма, школа, сёнэн
Тип: TV
Продолжительность: 24 эп. по ~24 мин.
Режиссер: Итадзу Ёсими
Студия: Production I.GРусские субтитры от AniPlayОписание: Обучение в средней школе уже подходило к концу, а Татара Фуджита до сих пор не имел понятия о том, чем ему хочется заниматься в этой жизни. И пока его одноклассники уже строили планы о том, в какую старшую школу им поступить, он всё ещё смутно представлял, куда ему двигаться дальше. Так бы он и провёл остаток времени в раздумьях и сомнениях, если бы не один случай, который коренным образом изменил его дальнейшую жизнь.

Однажды на улице к Фуджите прицепились хулиганы и начали вымогать у него деньги. Всё закончилось бы плачевно, если бы не вмешался человек на мотоцикле. Им оказался учитель бальных танцев Канамэ Сенгоку. Ошибочно подумав, что Фуджита рассматривал рекламу его студии танцев Огасавара, Сенгоку потащил парня в зал. Очарованный страстью учителя к своему делу, Фуджита решается на пробный урок. Встретив там свою одноклассницу Шизуку, он понимает, что в танце та становится совершенно другим человеком. Фуджита начинает восхищаться её целеустремлённостью, и это приводит его в мир спортивных бальных танцев, полный соревнований и любви к искусству!Информационные ссылки: AniDB | MyAnimeList | World ArtКачество: WEBRip
Тип релиза: Без хардсаба
Формат видео: MKV
Наличие линковки: Нет
Релиз/Автор рипа: HorribleSubs
Видео: x264, 8 bit, 1280x720, ~1448 Kbps, 23.976 fps
Аудио (int): JAP, AAC, 48000 Hz, ~125 Kbps, 2 ch
Субтитры (ext): RUS, ASS
<div class="sp-wrap">
<div class="sp-head folded">MediaInfo</div>
<div class="sp-body">

Формат : MatroskaВерсия формата : Version 4 / Version 2Размер файла : 273 МбайтПродолжительность : 24 м. 10 с.Режим общего битрейта : ПеременныйОбщий поток : 1577 Кбит/секДата кодирования : UTC 2017-07-07 15:52:15Программа кодирования : mkvmerge v9.6.0 ('Slave To Your Mind') 32bitБиблиотека кодирования : libebml v1.3.4 + libmatroska v1.4.5Attachments : OpenSans-Semibold.ttf

ВидеоИдентификатор : 1Формат : AVCФормат/Информация : Advanced Video CodecПрофиль формата : High@L3.1Параметр CABAC формата : ДаПараметр ReFrames формата : 5 кадровИдентификатор кодека : V_MPEG4/ISO/AVCПродолжительность : 24 м. 9 с.Вид битрейта : ПеременныйБитрейт : 1448 Кбит/секМаксимальный битрейт : 4500 Кбит/секШирина : 1280 пикселейВысота : 720 пикселейСоотношение сторон : 16:9Режим частоты кадров : ПостоянныйЧастота кадров : 23,976 (24000/1001) кадра/секЦветовое пространство : YUVСубдискретизация насыщенности : 4:2:0Битовая глубина : 8 битТип развёртки : ПрогрессивнаяБит/(Пиксели*Кадры) : 0.066Размер потока : 250 Мбайт (92%)Default : ДаForced : НетЦветовой диапазон : LimitedОсновные цвета : BT.709Характеристики трансфера : BT.709Коэффициенты матрицы : BT.709

АудиоИдентификатор : 2Формат : AACФормат/Информация : Advanced Audio CodecПрофиль формата : LCИдентификатор кодека : A_AACПродолжительность : 24 м. 10 с.Битрейт : 125 Кбит/секКаналы : 2 каналаРасположение каналов : Front: L RЧастота : 48,0 КГцЧастота кадров : 46,875 кадров/сек (1024 spf)Метод сжатия : С потерямиРазмер потока : 21,7 Мбайт (8%)Default : ДаForced : Нет
</div>
</div>
01.


Трекер:  [ 07-Июл-2017 22:01 ]

  

Скачать .torrent

Размер .torrent файла 781 B


Размер: 273 MB
Хэш (hash) релиза: b5bdbfddcaeb08d9f100022f551aa84f18df07a7
Подписка на обновления:

Еще никто не оставлял запись к записи скачать торрент Добро пожаловать на паркет Ballroom e Youkoso . Будь первым!

!Обратная связь