Скачать через торрент Конь БоДжек BoJack Horseman Фильм бесплатно в хорошем качестве torrent

Скачивайте на UnionPeer.org фильмы через торрент без регистрации. Новинки кино в хорошем качестве через торрент. На UnionPeer.org можно скачать через торрент фильмы 2014 и 2015 годов. Самые новые фильмы.

Скачать торрент Конь БоДжек BoJack Horseman бесплатно через .torrent фильм мультфильм сериал

Если у вас наблюдаются проблемы со скриншотами, переходом по ссылками, скачиванием торрентов - проблемы в блокировщике рекламы AdBlock. #хорошегоДня!


Статистика раздачи
Размер:  10.28 GB   |    Зарегистрирован:  2 месяца 14 дней   |    .torrent скачан:  31 раз   |   
Раздают:  1  
   
Загрузка...
 
Автор Сообщение

Galfimbul

avatar Galfimbul


Конь БоДжек
BoJack HorsemanСезон 2Серии: 1-12 из 12
Страна: США
Производство: Netflix
Жанр: Мультфильм, драма, комедия, сатира
Продолжительность: ~00:25:00
Год выпуска: 2015
Перевод:

Профессиональный (многоголосый закадровый) | NewStudio
Оригинальная звуковая дорожка (English)

Русские субтитры: нет
Английские субтитры: естьРежиссёр: Рафаэль Боб-Уоксберг / Raphael Bob-Waksberg и др.Действие происходит в мире населенном антропоморфными животными и людьми. Большая часть сюжета происходит в Лос-Анджелесе. БоДжек — звезда ситуационной комедии, популярной в конце 80-х — начале 90-х годов, на момент времени происходящего в сериале, БоДжек переживает кризис среднего возраста. В попытках вернуть былую популярность и любовь публики, БоДжек пытается написать автобиографию. Но не справляется с этим ввиду собственной лени, после уговоров агента и издателя, он нанимает писателя Диану Нгуен, которая проводит с ним много времени интервьюируя его, узнавая о его прошлом и работе в сериале. Впоследствии между ними возникает симпатия. Сюжет подается нам вперемешку с воспоминаниями БоДжека и его нынешним положением. Под конец первого сезона, вся сюжетная линия объединяется и зритель видит полную картину жизненного пути Коня БоДжека. Все раздачи мультсериалаКачество: WEB-DL 1080p
Формат: MKV
Видео: 1920x1080 (16:9) at 23.976 fps, High@L4.1, ~3700 kbps avg, ~0.073bpp
Аудио:

Russian: 48 kHz, AC3 Dolby Digital, 5.1 ch, ~384 kbps | Студия NewStudio [без рекламы]
English: 48 kHz, AC3 Dolby Digital, 5.1 ch, ~640 kbps

Субтитры: English (*.srt)
GeneralUnique ID : 217444910891558701362198831938473988780 (0xA3965DD3DDAA0BB3A15007FD6C4692AC)Complete name : \Bojack Horseman - Season 2\Bojack.Horseman.S02E07.Hank.After.Dark.1080p.Web-DL.mkvFormat : MatroskaFormat version : Version 4 / Version 2File size : 855 MiBDuration : 25 min 48 sOverall bit rate : 4 632 kb/sMovie name : E07. Hank After Dark (Ночной Хэнк)Encoded date : UTC 2017-07-05 21:24:47Writing application : mkvmerge v13.0.0 ('The Juggler') 64bitWriting library : libebml v1.3.4 + libmatroska v1.4.5Attachments : Poster.jpg

VideoID : 1Format : AVCFormat/Info : Advanced Video CodecFormat profile : High@L4.1Format settings, CABAC : YesFormat settings, ReFrames : 4 framesCodec ID : V_MPEG4/ISO/AVCDuration : 25 min 48 sBit rate : 3 605 kb/sWidth : 1 920 pixelsHeight : 1 080 pixelsDisplay aspect ratio : 16:9Frame rate mode : ConstantFrame rate : 23.976 (24000/1001) FPSColor space : YUVChroma subsampling : 4:2:0Bit depth : 8 bitsScan type : ProgressiveBits/(Pixel*Frame) : 0.073Stream size : 666 MiB (78%)Title : S02E07. Конь БоДжек / BoJack HorsemanWriting library : x264 core 146 r2538 121396cEncoding settings : cabac=1 / ref=4 / deblock=1:1:1 / analyse=0x3:0x133 / me=umh / subme=11 / psy=1 / psy_rd=0.50:0.00 / mixed_ref=1 / me_range=48 / chroma_me=1 / trellis=2 / 8x8dct=1 / cqm=0 / deadzone=21,11 / fast_pskip=0 / chroma_qp_offset=-2 / threads=12 / lookahead_threads=2 / sliced_threads=0 / nr=0 / decimate=0 / interlaced=0 / bluray_compat=0 / constrained_intra=0 / bframes=12 / b_pyramid=2 / b_adapt=2 / b_bias=0 / direct=3 / weightb=1 / open_gop=0 / weightp=2 / keyint=240 / keyint_min=23 / scenecut=40 / intra_refresh=0 / rc_lookahead=60 / rc=crf / mbtree=1 / crf=17.0 / qcomp=0.60 / qpmin=0 / qpmax=69 / qpstep=4 / ip_ratio=1.40 / aq=1:0.60Default : YesForced : NoColor range : LimitedMatrix coefficients : BT.709

Audio #1ID : 2Format : AC-3Format/Info : Audio Coding 3Mode extension : CM (complete main)Format settings, Endianness : BigCodec ID : A_AC3Duration : 25 min 48 sBit rate mode : ConstantBit rate : 384 kb/sChannel(s) : 6 channelsChannel positions : Front: L C R, Side: L R, LFESampling rate : 48.0 kHzFrame rate : 31.250 FPS (1536 spf)Bit depth : 16 bitsCompression mode : LossyStream size : 70.9 MiB (8%)Title : MVO NewStudioLanguage : RussianDefault : YesForced : No

Audio #2ID : 3Format : AC-3Format/Info : Audio Coding 3Mode extension : CM (complete main)Format settings, Endianness : BigCodec ID : A_AC3Duration : 25 min 48 sBit rate mode : ConstantBit rate : 640 kb/sChannel(s) : 6 channelsChannel positions : Front: L C R, Side: L R, LFESampling rate : 48.0 kHzFrame rate : 31.250 FPS (1536 spf)Bit depth : 16 bitsCompression mode : LossyStream size : 118 MiB (14%)Title : OriginalLanguage : EnglishDefault : NoForced : No

TextID : 4Format : UTF-8Codec ID : S_TEXT/UTF8Codec ID/Info : UTF-8 Plain TextDuration : 25 min 30 sBit rate : 115 b/sCount of elements : 548Stream size : 21.7 KiB (0%)Language : EnglishDefault : NoForced : No

Menu00:00:00.000 : en:00:00:00.00000:03:45.100 : en:00:03:45.100
(Полноразмерные скриншоты открываются кликом по миниатюре)
Новый диван / Brand new coach
Вчералэнд / Yesterdayland
Все еще сломан / Still broken
После вечеринки / After the party
Цыплята / Chickens
Высшая любовь / Higher Love
Ночной Хэнк / Hank After Dark
Давайте выясним / Let’s Find Out
Кадр / The Shot
Да И / Yes And
Побег из Лос-Анджелеса / Escape From L.A.
В Море / Out To Sea
<img class="smile" src="//static.t-ru.org/smiles/icon_exclaim.gif" alt=""> Внимание! В сериале присутствует ненормативная лексика! 18+ <img class="smile" src="//static.t-ru.org/smiles/icon_exclaim.gif" alt="">

Трекер:  [ 06-Июл-2017 23:54 ]

  

Скачать .torrent

Размер .torrent файла 27 KB


Размер: 10.28 GB
Хэш (hash) релиза: 75049b4ba29153be42754faf0ca05660966c913a
Подписка на обновления:

Торренты, похожие на Конь БоДжек BoJack Horseman скачать торрент

Форум Название Автор Размер S L Добавлен
Мультсериалы ·· Конь БоДжек / BoJack Horseman / Сезон: 2 / Серии: 1-12 из 12 (Рафаэль Боб-Уоксберг / Raphael Bob-Waksberg) [2014, США, Мультфильм / Драма / Комедия, WEBRip 720p] MVO (NewStudio) + Rus Sub Galfimbul 64122852055.97 GB 1 19 1478121329

00:15

3-Ноя-16

Мультсериалы ·· Конь БоДжек / BoJack Horseman / Сезон: 2 / Серии: 1-12 из 12 (Рафаэль Боб-Уоксберг / Raphael Bob-Waksberg) [2014, США, Мультфильм / Драма / Комедия, WEBRip 1080p] MVO (NewStudio) Galfimbul 1102956274410.27 GB 0 0 1475995022

09:37

9-Окт-16

Мультсериалы ·· Конь БоДжек / BoJack Horseman / Сезон: 2 / Серии: 1-12 из 12 (Рафаэль Боб-Уоксберг / Raphael Bob-Waksberg) [2014, США, Мультфильм / Драма / Комедия, WEBRip 1080p] MVO (NewStudio) Galfimbul 1102955865110.27 GB 0 0 1474182157

10:02

18-Сен-16

Мультсериалы ·· Конь БоДжек / BoJack Horseman / Сезон: 4 / Серии: 1-2 (12) (Рафаэль Боб-Уоксберг / Raphael Bob-Waksberg) [2017, Мультфильм, драма, комедия, сатира, WEB-DL 1080p] MVO (NewStudio) + Original + Subs (Eng) Galfimbul 23964998032.23 GB 0 0 1504985340

22:29

9-Сен-17

Мультсериалы ·· Конь БоДжек / BoJack Horseman / Сезон 4 / Серии 1-2 (12) (Рафаэль Боб-Уоксберг / Raphael Bob-Waksberg) [2017, Мультфильм, драма, комедия, сатира, WEBRip 1080p] MVO (OMSKBIRD) + Original + Subs (Eng) Galfimbul 23959679902.23 GB 0 0 1504951130

12:58

9-Сен-17

Еще никто не оставлял запись к записи скачать торрент Конь БоДжек BoJack Horseman . Будь первым!

!Обратная связь