Скачать через торрент Конь БоДжек BoJack Horseman Фильм бесплатно в хорошем качестве torrent

Скачивайте на UnionPeer.org фильмы через торрент без регистрации. Новинки кино в хорошем качестве через торрент. На UnionPeer.org можно скачать через торрент фильмы 2014 и 2015 годов. Самые новые фильмы.

Скачать торрент Конь БоДжек BoJack Horseman бесплатно через .torrent фильм мультфильм сериал

Если у вас наблюдаются проблемы со скриншотами, переходом по ссылками, скачиванием торрентов - проблемы в блокировщике рекламы AdBlock. #хорошегоДня!


Статистика раздачи
Размер:  12.79 GB   |    Зарегистрирован:  4 месяца 14 дней   |    .torrent скачан:  40 раз   |   
Раздают:  1  
   
Загрузка...
 
Автор Сообщение

Galfimbul

avatar Galfimbul


Конь БоДжек
BoJack HorsemanСезон 2Серии: 1-12 из 12
Страна: США
Производство: Netflix
Жанр: Мультфильм, драма, комедия, сатира
Продолжительность: ~00:25:00
Год выпуска: 2016
Перевод:

Профессиональный (многоголосый закадровый) | NewStudio
Оригинальная звуковая дорожка (English)

Русские субтитры: нет
Английские субтитры: естьРежиссёр: Рафаэль Боб-Уоксберг / Raphael Bob-Waksberg и др.Действие происходит в мире населенном антропоморфными животными и людьми. Большая часть сюжета происходит в Лос-Анджелесе. БоДжек — звезда ситуационной комедии, популярной в конце 80-х — начале 90-х годов, на момент времени происходящего в сериале, БоДжек переживает кризис среднего возраста. В попытках вернуть былую популярность и любовь публики, БоДжек пытается написать автобиографию. Но не справляется с этим ввиду собственной лени, после уговоров агента и издателя, он нанимает писателя Диану Нгуен, которая проводит с ним много времени интервьюируя его, узнавая о его прошлом и работе в сериале. Впоследствии между ними возникает симпатия. Сюжет подается нам вперемешку с воспоминаниями БоДжека и его нынешним положением. Под конец первого сезона, вся сюжетная линия объединяется и зритель видит полную картину жизненного пути Коня БоДжека. Все раздачи мультсериалаКачество: WEB-DL 1080p
Формат: MKV
Видео: 1920x1080 (16:9) at 23.976 fps, High@L4.1, ~4800 kbps avg, ~0.096bpp
Аудио:

Russian: 48 kHz, AC3 Dolby Digital, 5.1 ch, ~384 kbps | Студия NewStudio [без рекламы]
English: 48 kHz, AC3 Dolby Digital, 5.1 ch, ~384 kbps

Субтитры: English (*.srt)
GeneralUnique ID : 196386253161937490903533863207431370558 (0x93BE9DD7139D6BFAB420A0173694F73E)Complete name : \Bojack Horseman - Season 3\Bojack.Horseman.S03E09.Best.Thing.That.Ever.Happened.1080p.Web-DL.mkvFormat : MatroskaFormat version : Version 4 / Version 2File size : 1 012 MiBDuration : 25 min 36 sOverall bit rate : 5 524 kb/sMovie name : E10. It's You (Это ты)Encoded date : UTC 2017-07-06 20:11:44Writing application : mkvmerge v13.0.0 ('The Juggler') 64bitWriting library : libebml v1.3.4 + libmatroska v1.4.5Attachments : Poster.jpg

VideoID : 1Format : AVCFormat/Info : Advanced Video CodecFormat profile : High@L4.1Format settings, CABAC : YesFormat settings, ReFrames : 4 framesCodec ID : V_MPEG4/ISO/AVCDuration : 25 min 35 sBit rate : 4 753 kb/sWidth : 1 920 pixelsHeight : 1 080 pixelsDisplay aspect ratio : 16:9Frame rate mode : ConstantFrame rate : 23.976 (24000/1001) FPSColor space : YUVChroma subsampling : 4:2:0Bit depth : 8 bitsScan type : ProgressiveBits/(Pixel*Frame) : 0.096Stream size : 870 MiB (86%)Title : S03E09. Конь БоДжек / BoJack HorsemanWriting library : x264 core 148 r2705+3 3f5ed56 / tmod 418b0d4 X86_64Encoding settings : cabac=1 / ref=4 / deblock=1:-1:-1 / analyse=0x3:0x133 / me=umh / subme=11 / psy=1 / fade_compensate=0.00 / psy_rd=1.05:0.00 / mixed_ref=1 / me_range=24 / chroma_me=1 / trellis=2 / 8x8dct=1 / cqm=0 / deadzone=21,11 / fast_pskip=0 / chroma_qp_offset=-2 / threads=12 / lookahead_threads=3 / sliced_threads=0 / nr=0 / decimate=0 / interlaced=0 / bluray_compat=0 / constrained_intra=0 / fgo=0 / bframes=10 / b_pyramid=2 / b_adapt=2 / b_bias=0 / direct=3 / weightb=1 / open_gop=0 / weightp=2 / keyint=250 / keyint_min=23 / scenecut=40 / intra_refresh=0 / rc=crf / mbtree=0 / crf=17.0000 / qcomp=0.60 / qpmin=0:0:0 / qpmax=69:69:69 / qpstep=4 / ip_ratio=1.40 / pb_ratio=1.30 / aq=3:0.90 / aq-sensitivity=10.00 / aq-factor=1.00:1.00:1.00 / aq2=0 / aq3=0Language : EnglishDefault : YesForced : No

Audio #1ID : 2Format : AC-3Format/Info : Audio Coding 3Mode extension : CM (complete main)Format settings, Endianness : BigCodec ID : A_AC3Duration : 25 min 36 sBit rate mode : ConstantBit rate : 384 kb/sChannel(s) : 6 channelsChannel positions : Front: L C R, Side: L R, LFESampling rate : 48.0 kHzFrame rate : 31.250 FPS (1536 spf)Bit depth : 16 bitsCompression mode : LossyStream size : 70.3 MiB (7%)Title : MVO NewStudioLanguage : RussianDefault : YesForced : No

Audio #2ID : 3Format : AC-3Format/Info : Audio Coding 3Mode extension : CM (complete main)Format settings, Endianness : BigCodec ID : A_AC3Duration : 25 min 35 sBit rate mode : ConstantBit rate : 384 kb/sChannel(s) : 6 channelsChannel positions : Front: L C R, Side: L R, LFESampling rate : 48.0 kHzFrame rate : 31.250 FPS (1536 spf)Bit depth : 16 bitsCompression mode : LossyStream size : 70.3 MiB (7%)Title : OriginalLanguage : EnglishDefault : NoForced : No

Text #1ID : 4Format : ASSCodec ID : S_TEXT/ASSCodec ID/Info : Advanced Sub Station AlphaDuration : 24 s 360 msBit rate : 159 b/sCount of elements : 6Compression mode : LosslessStream size : 485 Bytes (0%)Title : ForcedLanguage : RussianDefault : YesForced : No

Text #2ID : 5Format : UTF-8Codec ID : S_TEXT/UTF8Codec ID/Info : UTF-8 Plain TextDuration : 25 min 7 sBit rate : 120 b/sCount of elements : 510Stream size : 22.1 KiB (0%)Language : EnglishDefault : NoForced : No

Menu00:00:00.000 : en:00:00:00.00000:03:13.485 : en:00:03:13.485
(Полноразмерные скриншоты открываются кликом по миниатюре)
Начните распространять новости / Start Spreading The News
Шоу Коня БоДжека / The BoJack Horseman Show
БоДжек убивает / BoJack Kills
Рыба, вытащенная из воды / Fish Out of Water
Любовь и/или брак / Love And/Or Marriage
Брап-Брап, Пиу-Пиу / Brrap Brrap Pew Pew
Остановите печать / Stop the Presses
Старый знакомый / Old Acquaintance
Лучшая вещь, что когда-либо случалась / Best Thing That Ever Happened
Это ты / It's You
Это слишком много, чувак! / That's Too Much, Man!
Всё прошло хорошо / That Went Well
<img class="smile" src="//static.t-ru.org/smiles/icon_exclaim.gif" alt=""> Внимание! В сериале присутствует ненормативная лексика! 18+ <img class="smile" src="//static.t-ru.org/smiles/icon_exclaim.gif" alt="">

Трекер:  [ 06-Июл-2017 23:54 ]

  

Скачать .torrent

Размер .torrent файла 33 KB


Размер: 12.79 GB
Хэш (hash) релиза: 70a28001b307d70e71d999f314b663610e566e48
Подписка на обновления:

Торренты, похожие на Конь БоДжек BoJack Horseman скачать торрент

Форум Название Автор Размер S L Добавлен
Мультсериалы ·· Конь БоДжек / Конь БоДжэк / BoJack Horseman / Сезон: 3 / Серии: 1-12 из 12 (Рафаэль Боб-Ваксберг / Raphael Bob-Waksberg) [2016, США, мультфильм, драма, комедия, WEBRip-AVC Hi10P] MVO (NewStudio) + Original Galfimbul 64297829655.99 GB 1 18 1469791313

14:21

29-Июл-16

Еще никто не оставлял запись к записи скачать торрент Конь БоДжек BoJack Horseman . Будь первым!

!Обратная связь