Скачать через торрент Конь БоДжек BoJack Horseman Фильм бесплатно в хорошем качестве torrent

Скачивайте на UnionPeer.org фильмы через торрент без регистрации. Новинки кино в хорошем качестве через торрент. На UnionPeer.org можно скачать через торрент фильмы 2014 и 2015 годов. Самые новые фильмы.

Скачать торрент Конь БоДжек BoJack Horseman бесплатно через .torrent фильм мультфильм сериал

Если у вас наблюдаются проблемы со скриншотами, переходом по ссылками, скачиванием торрентов - проблемы в блокировщике рекламы AdBlock. #хорошегоДня!


Статистика раздачи
Размер:  13.5 GB   |    Зарегистрирован:  4 месяца 14 дней   |    .torrent скачан:  42 раза   |   
Раздают:  1  
   
Загрузка...
 
Автор Сообщение

Galfimbul

avatar Galfimbul


Конь БоДжек
BoJack HorsemanСезон 1Серии: 1-12 из 12
Страна: США
Производство: Netflix
Жанр: Мультфильм, драма, комедия, сатира
Продолжительность: ~00:25:00
Год выпуска: 2014
Перевод:

Профессиональный (многоголосый закадровый) | NewStudio
Оригинальная звуковая дорожка (English)

Русские субтитры: нет
Английские субтитры: естьРежиссёр: Рафаэль Боб-Уоксберг / Raphael Bob-Waksberg и др.Действие происходит в мире населенном антропоморфными животными и людьми. Большая часть сюжета происходит в Лос-Анджелесе. БоДжек — звезда ситуационной комедии, популярной в конце 80-х — начале 90-х годов, на момент времени происходящего в сериале, БоДжек переживает кризис среднего возраста. В попытках вернуть былую популярность и любовь публики, БоДжек пытается написать автобиографию. Но не справляется с этим ввиду собственной лени, после уговоров агента и издателя, он нанимает писателя Диану Нгуен, которая проводит с ним много времени интервьюируя его, узнавая о его прошлом и работе в сериале. Впоследствии между ними возникает симпатия. Сюжет подается нам вперемешку с воспоминаниями БоДжека и его нынешним положением. Под конец первого сезона, вся сюжетная линия объединяется и зритель видит полную картину жизненного пути Коня БоДжека. Семпл | Все раздачи мультсериалаКачество: WEB-DL 1080p
Формат: MKV
Видео: 1920x1080 (16:9) at 23.976 fps, High@L5, ~4900 kbps avg, ~0.098bpp
Аудио:

Russian: 48 kHz, AC3 Dolby Digital, 5.1 ch, ~384 kbps | Студия NewStudio [без рекламы]
English: 48 kHz, AC3 Dolby Digital, 5.1 ch, ~640 kbps

Субтитры: English (*.srt)
GeneralUnique ID : 245330040596238188138244480208655574547 (0xB890D8DE71477387AD338021DEEF6613)Complete name : Bojack Horseman - Season 1\Bojack.Horseman.S01E01.The.BoJack.Horseman.Story.1080p.Web-DL.mkvFormat : MatroskaFormat version : Version 4 / Version 2File size : 1.04 GiBDuration : 25 min 5 sOverall bit rate : 5 911 kb/sMovie name : BoJack Horseman: The BoJack Horseman Story, Chapter OneEncoded date : UTC 2017-07-05 17:37:15Writing application : mkvmerge v13.0.0 ('The Juggler') 64bitWriting library : libebml v1.3.4 + libmatroska v1.4.5Attachments : Poster.jpg

VideoID : 1Format : AVCFormat/Info : Advanced Video CodecFormat profile : High@L5Format settings, CABAC : YesFormat settings, ReFrames : 5 framesCodec ID : V_MPEG4/ISO/AVCDuration : 25 min 5 sBit rate : 4 884 kb/sWidth : 1 920 pixelsHeight : 1 080 pixelsDisplay aspect ratio : 16:9Frame rate mode : ConstantFrame rate : 23.976 (24000/1001) FPSColor space : YUVChroma subsampling : 4:2:0Bit depth : 8 bitsScan type : ProgressiveBits/(Pixel*Frame) : 0.098Stream size : 876 MiB (83%)Title : BoJack Horseman: The BoJack Horseman Story, Chapter OneWriting library : x264 core 142 r2453 ea0ca51Encoding settings : cabac=1 / ref=5 / deblock=1:-1:-1 / analyse=0x3:0x113 / me=umh / subme=8 / psy=1 / psy_rd=1.00:0.10 / mixed_ref=1 / me_range=16 / chroma_me=1 / trellis=1 / 8x8dct=1 / cqm=0 / deadzone=21,11 / fast_pskip=1 / chroma_qp_offset=-3 / threads=12 / lookahead_threads=2 / sliced_threads=0 / nr=0 / decimate=1 / interlaced=0 / bluray_compat=0 / constrained_intra=0 / bframes=3 / b_pyramid=2 / b_adapt=2 / b_bias=0 / direct=3 / weightb=1 / open_gop=0 / weightp=2 / keyint=240 / keyint_min=23 / scenecut=40 / intra_refresh=0 / rc_lookahead=50 / rc=crf / mbtree=1 / crf=19.0 / qcomp=0.60 / qpmin=0 / qpmax=69 / qpstep=4 / ip_ratio=1.40 / aq=1:1.20Language : EnglishDefault : YesForced : NoColor range : LimitedMatrix coefficients : BT.709

Audio #1ID : 2Format : AC-3Format/Info : Audio Coding 3Mode extension : CM (complete main)Format settings, Endianness : BigCodec ID : A_AC3Duration : 25 min 4 sBit rate mode : ConstantBit rate : 384 kb/sChannel(s) : 6 channelsChannel positions : Front: L C R, Side: L R, LFESampling rate : 48.0 kHzFrame rate : 31.250 FPS (1536 spf)Bit depth : 16 bitsCompression mode : LossyStream size : 68.9 MiB (6%)Title : MVO NewStudioLanguage : RussianDefault : YesForced : No

Audio #2ID : 3Format : AC-3Format/Info : Audio Coding 3Mode extension : CM (complete main)Format settings, Endianness : BigCodec ID : A_AC3Duration : 25 min 4 sBit rate mode : ConstantBit rate : 640 kb/sChannel(s) : 6 channelsChannel positions : Front: L C R, Side: L R, LFESampling rate : 48.0 kHzFrame rate : 31.250 FPS (1536 spf)Bit depth : 16 bitsCompression mode : LossyStream size : 115 MiB (11%)Language : EnglishDefault : NoForced : No

TextID : 4Format : UTF-8Codec ID : S_TEXT/UTF8Codec ID/Info : UTF-8 Plain TextDuration : 24 min 57 sBit rate : 116 b/sCount of elements : 720Stream size : 21.3 KiB (0%)Language : EnglishDefault : NoForced : No

Menu00:00:00.000 : en:00:00:00.00000:02:59.596 : en:00:02:59.596
(Полноразмерные скриншоты открываются кликом по миниатюре)
Конь БоДжек: история Коня БоДжека, глава один / BoJack Horseman: The BoJack Horseman Story, Chapter One
БоДжек ненавидит военных / BoJack Hates the Troops
Колючая булочка / Prickly Muffin
Зои и Зельды / Zoës and Zeldas
Прожигай жизнь, Диана Нюджен / Live Fast, Diane Nguyen
Наша история это Д-история / Our A-Story Is a 'D' Story
Скажи что-нибудь / Say Anything
Телескоп / The Telescope
КоньФуз / Horse Majeure
Один маленький пони / One Trick Pony
Кончина неудачника / Downer Ending
Позже / Later
<img class="smile" src="//static.t-ru.org/smiles/icon_exclaim.gif" alt=""> Внимание! В сериале присутствует ненормативная лексика! 18+ <img class="smile" src="//static.t-ru.org/smiles/icon_exclaim.gif" alt="">

Трекер:  [ 06-Июл-2017 23:24 ]

  

Скачать .torrent

Размер .torrent файла 35 KB


Размер: 13.5 GB
Хэш (hash) релиза: 4af1c114196098431a2c7e71b4a08b9e968ce8d8
Подписка на обновления:

Торренты, похожие на Конь БоДжек BoJack Horseman скачать торрент

Форум Название Автор Размер S L Добавлен
Мультсериалы ·· Конь БоДжек / BoJack Horseman / Сезон: 2 / Серии: 1-12 (12) (Рафаэль Боб-Уоксберг / Raphael Bob-Waksberg) [2015, Мультфильм, драма, комедия, сатира, WEB-DL 1080p] MVO (NewStudio) + Original + Subs (Eng) Galfimbul 1103293219610.28 GB 2 0 1499374817

00:00

7-Июл-17

Мультсериалы ·· Конь БоДжек / BoJack Horseman / Сезон: 3 / Серии: 1-12 (12) (Рафаэль Боб-Уоксберг / Raphael Bob-Waksberg) [2016, Мультфильм, драма, комедия, сатира, WEB-DL 1080p] MVO (NewStudio) + Original + Subs (Eng) Galfimbul 1372794488412.79 GB 0 0 1499374806

00:00

7-Июл-17

Мультсериалы ·· Конь БоДжек / BoJack Horseman / Сезон: 2 / Серии: 1-12 из 12 (Рафаэль Боб-Уоксберг / Raphael Bob-Waksberg) [2014, США, Мультфильм / Драма / Комедия, WEBRip 720p] MVO (NewStudio) + Rus Sub Galfimbul 64122852055.97 GB 1 21 1478121329

00:15

3-Ноя-16

Мультсериалы ·· Конь БоДжек / BoJack Horseman / Сезон: 2 / Серии: 1-12 из 12 (Рафаэль Боб-Уоксберг / Raphael Bob-Waksberg) [2014, США, Мультфильм / Драма / Комедия, WEBRip 1080p] MVO (NewStudio) Galfimbul 1102956274410.27 GB 0 0 1475995022

09:37

9-Окт-16

Мультсериалы ·· Конь БоДжек / BoJack Horseman / Сезон: 2 / Серии: 1-12 из 12 (Рафаэль Боб-Уоксберг / Raphael Bob-Waksberg) [2014, США, Мультфильм / Драма / Комедия, WEBRip 1080p] MVO (NewStudio) Galfimbul 1102955865110.27 GB 0 0 1474182157

10:02

18-Сен-16

Мультсериалы ·· Конь БоДжек / BoJack Horseman / Сезон: 4 / Серии: 1-2 (12) (Рафаэль Боб-Уоксберг / Raphael Bob-Waksberg) [2017, Мультфильм, драма, комедия, сатира, WEB-DL 1080p] MVO (NewStudio) + Original + Subs (Eng) Galfimbul 23964998032.23 GB 0 0 1504985340

22:29

9-Сен-17

Мультсериалы ·· Конь БоДжек / BoJack Horseman / Сезон 4 / Серии 1-2 (12) (Рафаэль Боб-Уоксберг / Raphael Bob-Waksberg) [2017, Мультфильм, драма, комедия, сатира, WEBRip 1080p] MVO (OMSKBIRD) + Original + Subs (Eng) Galfimbul 23959679902.23 GB 0 0 1504951130

12:58

9-Сен-17

Мультсериалы ·· Конь БоДжек / Конь БоДжэк / BoJack Horseman / Сезон: 3 / Серии: 1-12 из 12 (Рафаэль Боб-Ваксберг / Raphael Bob-Waksberg) [2016, США, мультфильм, драма, комедия, WEBRip-AVC Hi10P] MVO (NewStudio) + Original Galfimbul 64297829655.99 GB 1 18 1469791313

14:21

29-Июл-16

Еще никто не оставлял запись к записи скачать торрент Конь БоДжек BoJack Horseman . Будь первым!

!Обратная связь