Скачать через торрент [MULT] Ледниковый период: Коллекция Ice Age: Collection бесплатно русская версия torrent активатор

Если у вас наблюдаются проблемы со скриншотами, переходом по ссылками, скачиванием торрентов - проблемы в блокировщике рекламы AdBlock. #хорошегоДня!


Статистика раздачи
Размер:  12.98 GB   |    Зарегистрирован:  3 месяца 11 дней   |    .torrent скачан:  43 раза   |   
Раздают:  1  
   
Загрузка...
 
Автор Сообщение

Galfimbul

avatar Galfimbul


Ледниковый период : Коллекция / Ice Age: Collection[Оригинальный видеоряд]
Ледниковый период / Ice Age
Год выпуска: 2002
Страна: США
Жанр: комедия, приключения, семейный, мультфильм
Продолжительность: 01:21:09
Перевод №1: Русский Профессиональный (полное дублирование) Blu-ray EUR
Перевод №2: Украинский Профессиональный (полное дублирование) Новый канал
Перевод №3: Русский Профессиональный (многоголосый, закадровый) Киномания
Перевод №4: Русский Авторский (одноголосый, закадровый) Дмитрий «Гоблин» Пучков
Перевод №5: Русский Авторский (одноголосый, закадровый) П.Гланц
Перевод №6: Русский Авторский (одноголосый, закадровый) А.Гаврилов
Перевод №7: Русский Авторский (одноголосый, закадровый) В. Королёв
Перевод №8: Русский Авторский (одноголосый, закадровый) Держиморда
Оригинальная дорожка: Есть
Субтитры: русские (Full (Blu-ray EUR)), (Full (DVD)), «Гоблин»), английские (Full)Режиссеры: Крис Уэдж / Chris Wedge, Карлос Салдана / Carlos SaldanhaРоли озвучивали: Рэй Романо, Джон Легуизамо, Денис Лири, Горан Вишнич, Джек Блэк, Седрик «Развлекатель», Стивен Рут, Дидрих Бадер, Алан Тьюдик, Лорри Бэгли и другие .Описание: Веселые и опасные приключения героев. 20 тыс. лет назад. Чтобы избежать приближающегося из-за наступления ледникового периода холода, животные мигрируют на юг. Однако некоторые из них все-таки решают остаться — одинокий, угрюмый мамонт Манфред, а также бесшабашный ленивец Сид.

Случайно эта парочка наталкивается на человеческого детеныша. Они решаются вернуть его людям и отправляются в путешествие. По пути они встречают саблезубого хитрого тигра. И теперь этой веселой компании предстоят забавные приключения! Релиз группы Качество: BDRip / рип с BDRemux 1080p [EUR]
Формат: MP4
Видео кодек: H.264
Аудио кодек: AAC
Видео: 1280x692 AR:1.85 3000 kbps 23.976 fps
Аудио №1: [Russian] 2ch 48 kHz 128 kbps - [Dub] Профессиональный (полное дублирование) Blu-ray EUR
Аудио №2: [Ukrainian] 2ch 48 kHz 128 kbps - [Dub] Профессиональный (полное дублирование) Новый канал
Аудио №3: [Russian] 2ch 48 kHz 128 kbps - [MVO] Профессиональный (многоголосый, закадровый) Киномания
Аудио №4: [Russian] 2ch 48 kHz 128 kbps - [VO] Авторский (одноголосый, закадровый) Дмитрий «Гоблин» Пучков
Аудио №5: [Russian] 2ch 48 kHz 128 kbps - [VO] Авторский (одноголосый, закадровый) П.Гланц
Аудио №6: [Russian] 2ch 48 kHz 128 kbps - [VO] Авторский (одноголосый, закадровый) А.Гаврилов
Аудио №7: [Russian] 2ch 48 kHz 128 kbps - [VO] Авторский (одноголосый, закадровый) В. Королёв
Аудио №8: [Russian] 2ch 48 kHz 128 kbps - [VO] Авторский (одноголосый, закадровый) Держиморда
Аудио №9: [English] 2ch 48 kHz 128 kbps - Оригинал (английский)
<div class="sp-wrap">
<div class="sp-head folded">Logx264</div>
<div class="sp-body">avs [info]: 1280x692p 1:1 @ 24000/1001 fps (cfr)
x264 [info]: using SAR=1/1
x264 [info]: using cpu capabilities: MMX2 SSE2Fast SSSE3 SSE4.2 AVX FMA3 AVX2 LZCNT BMI2
x264 [info]: profile High, level 4.1

x264 [info]: frame I:1143 Avg QP:13.08 size:102902
x264 [info]: frame P:29675 Avg QP:16.99 size: 28116
x264 [info]: frame B:85943 Avg QP:19.37 size: 10166
x264 [info]: consecutive B-frames: 4.2% 5.0% 9.2% 36.3% 13.1% 21.4% 4.0% 4.0% 1.4% 1.3%
x264 [info]: mb I I16..4: 6.5% 76.0% 17.5%
x264 [info]: mb P I16..4: 1.6% 14.0% 1.8% P16..4: 25.3% 24.5% 6.9% 0.0% 0.0% skip:26.0%
x264 [info]: mb B I16..4: 0.2% 2.0% 0.2% B16..8: 23.5% 13.3% 2.2% direct: 4.0% skip:54.4% L0:43.5% L1:43.9% BI:12.6%
x264 [info]: 8x8 transform intra:80.2% inter:59.5%
x264 [info]: direct mvs spatial:97.3% temporal:2.7%
x264 [info]: coded y,uvDC,uvAC intra: 80.2% 76.3% 47.3% inter: 16.5% 12.3% 4.4%
x264 [info]: i16 v,h,dc,p: 11% 13% 5% 71%
x264 [info]: i8 v,h,dc,ddl,ddr,vr,hd,vl,hu: 9% 9% 7% 9% 13% 12% 13% 12% 16%
x264 [info]: i4 v,h,dc,ddl,ddr,vr,hd,vl,hu: 22% 8% 7% 8% 13% 11% 12% 8% 12%
x264 [info]: i8c dc,h,v,p: 32% 31% 17% 19%
x264 [info]: Weighted P-Frames: Y:6.3% UV:4.4%
x264 [info]: ref P L0: 53.8% 7.2% 17.0% 6.7% 5.1% 4.1% 3.5% 2.3% 0.3% 0.0%
x264 [info]: ref B L0: 71.6% 12.2% 7.0% 3.8% 3.0% 1.8% 0.7%
x264 [info]: ref B L1: 93.9% 6.1%
x264 [info]: kb/s:2999.06

encoded 116761 frames, 9.10 fps, 2999.07 kb/s
GeneralComplete name : D:\Torrents\Ice Age Collection.2002-2016.BDRip, WEB-DLRip.x264.1280x\Ice Age.2002.BDRip.x264.1280x.rip by Frost O.S.mp4Format : MPEG-4Format profile : Base MediaCodec ID : isom (isom)File size : 2.36 GiBDuration : 1 h 21 minOverall bit rate mode : VariableOverall bit rate : 4 169 kb/sEncoded date : UTC 2017-07-06 13:49:19Tagged date : UTC 2017-07-06 13:49:19Writing application : My MP4Box GUI 0.6.0.6

VideoID : 1Format : AVCFormat/Info : Advanced Video CodecFormat profile : High@L4.1Format settings, CABAC : YesFormat settings, ReFrames : 8 framesCodec ID : avc1Codec ID/Info : Advanced Video CodingDuration : 1 h 21 minBit rate : 3 000 kb/sMaximum bit rate : 13.0 Mb/sWidth : 1 280 pixelsHeight : 692 pixelsDisplay aspect ratio : 1.85:1Frame rate mode : ConstantFrame rate : 23.976 (24000/1001) FPSColor space : YUVChroma subsampling : 4:2:0Bit depth : 8 bitsScan type : ProgressiveBits/(Pixel*Frame) : 0.141Stream size : 1.70 GiB (72%)Title : Ice Age.2002.BDRip.x264.1280x.rip by Frost O.S.mp4Writing library : x264 core 148 r2744 b97ae06Encoding settings : cabac=1 / ref=8 / deblock=1:-3:-3 / analyse=0x3:0x113 / me=umh / subme=11 / psy=1 / psy_rd=0.70:0.00 / mixed_ref=1 / me_range=32 / chroma_me=1 / trellis=2 / 8x8dct=1 / cqm=0 / deadzone=21,11 / fast_pskip=0 / chroma_qp_offset=-2 / threads=6 / lookahead_threads=1 / sliced_threads=0 / nr=0 / decimate=0 / interlaced=0 / bluray_compat=0 / constrained_intra=0 / bframes=9 / b_pyramid=2 / b_adapt=2 / b_bias=0 / direct=3 / weightb=1 / open_gop=0 / weightp=2 / keyint=250 / keyint_min=23 / scenecut=40 / intra_refresh=0 / rc=2pass / mbtree=0 / bitrate=3000 / ratetol=1.0 / qcomp=0.80 / qpmin=0 / qpmax=69 / qpstep=4 / cplxblur=20.0 / qblur=0.5 / ip_ratio=1.40 / pb_ratio=1.30 / aq=3:0.80Encoded date : UTC 2017-07-03 11:27:44Tagged date : UTC 2017-07-06 13:50:16Color range : LimitedColor primaries : BT.709Transfer characteristics : BT.709Matrix coefficients : BT.709

Audio #1ID : 2Format : AACFormat/Info : Advanced Audio CodecFormat profile : LCCodec ID : 40Duration : 1 h 21 minBit rate mode : VariableBit rate : 128 kb/sMaximum bit rate : 136 kb/sChannel(s) : 2 channelsChannel positions : Front: L RSampling rate : 48.0 kHzFrame rate : 46.875 FPS (1024 spf)Compression mode : LossyStream size : 74.3 MiB (3%)Title : Russian / Dub, Blu-ray EUREncoded date : UTC 2017-07-06 13:49:46Tagged date : UTC 2017-07-06 13:50:16

Audio #2ID : 3Format : AACFormat/Info : Advanced Audio CodecFormat profile : LCCodec ID : 40Duration : 1 h 21 minBit rate mode : VariableBit rate : 128 kb/sMaximum bit rate : 140 kb/sChannel(s) : 2 channelsChannel positions : Front: L RSampling rate : 48.0 kHzFrame rate : 46.875 FPS (1024 spf)Compression mode : LossyStream size : 74.3 MiB (3%)Title : Ukrainian / Dub, Novui_kanalEncoded date : UTC 2017-07-06 13:49:51Tagged date : UTC 2017-07-06 13:50:16

Audio #3ID : 4Format : AACFormat/Info : Advanced Audio CodecFormat profile : LCCodec ID : 40Duration : 1 h 21 minBit rate mode : VariableBit rate : 128 kb/sMaximum bit rate : 137 kb/sChannel(s) : 2 channelsChannel positions : Front: L RSampling rate : 48.0 kHzFrame rate : 46.875 FPS (1024 spf)Compression mode : LossyStream size : 74.3 MiB (3%)Title : Russian / MVO, KinomaniyaEncoded date : UTC 2017-07-06 13:49:53Tagged date : UTC 2017-07-06 13:50:16

Audio #4ID : 5Format : AACFormat/Info : Advanced Audio CodecFormat profile : LCCodec ID : 40Duration : 1 h 21 minBit rate mode : VariableBit rate : 128 kb/sMaximum bit rate : 137 kb/sChannel(s) : 2 channelsChannel positions : Front: L RSampling rate : 48.0 kHzFrame rate : 46.875 FPS (1024 spf)Compression mode : LossyStream size : 74.3 MiB (3%)Title : Russian / VO, GoblinEncoded date : UTC 2017-07-06 13:49:55Tagged date : UTC 2017-07-06 13:50:16

Audio #5ID : 6Format : AACFormat/Info : Advanced Audio CodecFormat profile : LCCodec ID : 40Duration : 1 h 21 minBit rate mode : VariableBit rate : 128 kb/sMaximum bit rate : 137 kb/sChannel(s) : 2 channelsChannel positions : Front: L RSampling rate : 48.0 kHzFrame rate : 46.875 FPS (1024 spf)Compression mode : LossyStream size : 74.2 MiB (3%)Title : Russian / VO, GlanzEncoded date : UTC 2017-07-06 13:49:58Tagged date : UTC 2017-07-06 13:50:16

Audio #6ID : 7Format : AACFormat/Info : Advanced Audio CodecFormat profile : LCCodec ID : 40Duration : 1 h 21 minBit rate mode : VariableBit rate : 128 kb/sMaximum bit rate : 139 kb/sChannel(s) : 2 channelsChannel positions : Front: L RSampling rate : 48.0 kHzFrame rate : 46.875 FPS (1024 spf)Compression mode : LossyStream size : 74.3 MiB (3%)Title : Russian / VO, GavrilovEncoded date : UTC 2017-07-06 13:50:00Tagged date : UTC 2017-07-06 13:50:16

Audio #7ID : 8Format : AACFormat/Info : Advanced Audio CodecFormat profile : LCCodec ID : 40Duration : 1 h 21 minBit rate mode : VariableBit rate : 128 kb/sMaximum bit rate : 138 kb/sChannel(s) : 2 channelsChannel positions : Front: L RSampling rate : 48.0 kHzFrame rate : 46.875 FPS (1024 spf)Compression mode : LossyStream size : 74.3 MiB (3%)Title : Russian / VO, KorolevEncoded date : UTC 2017-07-06 13:50:07Tagged date : UTC 2017-07-06 13:50:16

Audio #8ID : 9Format : AACFormat/Info : Advanced Audio CodecFormat profile : LCCodec ID : 40Duration : 1 h 21 minBit rate mode : VariableBit rate : 128 kb/sMaximum bit rate : 136 kb/sChannel(s) : 2 channelsChannel positions : Front: L RSampling rate : 48.0 kHzFrame rate : 46.875 FPS (1024 spf)Compression mode : LossyStream size : 74.3 MiB (3%)Title : Russian / VO, DerzhumordaEncoded date : UTC 2017-07-06 13:50:10Tagged date : UTC 2017-07-06 13:50:16

Audio #9ID : 10Format : AACFormat/Info : Advanced Audio CodecFormat profile : LCCodec ID : 40Duration : 1 h 21 minBit rate mode : VariableBit rate : 128 kb/sMaximum bit rate : 137 kb/sChannel(s) : 2 channelsChannel positions : Front: L RSampling rate : 48.0 kHzFrame rate : 46.875 FPS (1024 spf)Compression mode : LossyStream size : 74.3 MiB (3%)Title : English / OriginalEncoded date : UTC 2017-07-06 13:50:12Tagged date : UTC 2017-07-06 13:50:16

Text #1ID : 11Format : Timed TextCodec ID : tx3gDuration : 1 h 21 minBit rate mode : VariableBit rate : 62 b/sStream size : 36.7 KiB (0%)Title : Russian / Full (Blu-ray EUR)Forced : NoEncoded date : UTC 2017-07-06 13:50:16Tagged date : UTC 2017-07-06 13:50:16

Text #2ID : 12Format : Timed TextCodec ID : tx3gDuration : 1 h 13 minBit rate mode : VariableBit rate : 66 b/sStream size : 35.3 KiB (0%)Title : Russian / Full (DVD)Forced : NoEncoded date : UTC 2017-07-06 13:50:16Tagged date : UTC 2017-07-06 13:50:16

Text #3ID : 13Format : Timed TextCodec ID : tx3gDuration : 1 h 15 minBit rate mode : VariableBit rate : 76 b/sStream size : 41.8 KiB (0%)Title : Russian / GoblinForced : NoEncoded date : UTC 2017-07-06 13:50:16Tagged date : UTC 2017-07-06 13:50:16

Text #4ID : 14Format : Timed TextCodec ID : tx3gDuration : 1 h 21 minBit rate mode : VariableBit rate : 41 b/sStream size : 24.3 KiB (0%)Title : English / FullForced : NoEncoded date : UTC 2017-07-06 13:50:16Tagged date : UTC 2017-07-06 13:50:16
</div>
</div>
Ледниковый период 2: Глобальное потепление / Ice Age: The Meltdown
Год выпуска: 2006
Страна: США
Жанр: комедия, приключения, семейный, мультфильм
Продолжительность: 01:30:36
Перевод №1: Русский Профессиональный (полное дублирование) Blu-ray EUR
Перевод №2: Украинский Профессиональный (полное дублирование) ТО "Цікава ідея"
Перевод №3: Русский Профессиональный (двухголосый, закадровый) П. Гланц и И. Королёва
Перевод №4: Русский Авторский (одноголосый, закадровый) М. Чадов
Оригинальная дорожка: Есть
Субтитры: русские (Full Blu-ray EUR), английские (Full)Режиссер: Карлос Салдана / Carlos SaldanhaРоли озвучивали: Рэй Романо, Джон Легуизамо, Денис Лири, Шонн Уильям Скотт, Джош Пек, Куин Латифа, Уилл Арнетт, Джей Лено, Крис Уэдж, Питер Экерман и другие .Описание: Ледниковый период закончился, и настала пора Глобального потепления. Снега начинают таять, и вся жизнь в долине ставится под угрозу. В этот раз герои должны объединить все усилия, чтобы предотвратить катастрофу… Релиз группы Качество: BDRip / рип с Blu-ray Disc 1080p [EUR]
Формат: MP4
Видео кодек: H.264
Аудио кодек: AAC
Видео: 1280x690 AR:1.85 3000 kbps 23.976 fps
Аудио №1: [Russian] 2ch 48 kHz 128 kbps - [Dub] Профессиональный (полное дублирование) Blu-ray EUR
Аудио №2: [Ukrainian] 2ch 48 kHz 128 kbps - [Dub] Профессиональный (полное дублирование) ТО "Цікава ідея"
Аудио №3: [Russian] 2ch 48 kHz 128 kbps - [DVO] Профессиональный (двухголосый, закадровый) П.Гланц, И.Королёва
Аудио №4: [Russian] 2ch 48 kHz 128 kbps - [VO] Авторский (одноголосый, закадровый) М. Чадов
Аудио №5: [English] 2ch 48 kHz 128 kbps - Оригинал (английский)
<div class="sp-wrap">
<div class="sp-head folded">Logx264</div>
<div class="sp-body">avs [info]: 1280x690p 1:1 @ 24000/1001 fps (cfr)
x264 [info]: using SAR=1/1
x264 [info]: using cpu capabilities: MMX2 SSE2Fast SSSE3 SSE4.2 AVX FMA3 AVX2 LZCNT BMI2
x264 [info]: profile High, level 4.1

x264 [info]: frame I:1170 Avg QP:15.27 size:106747
x264 [info]: frame P:34833 Avg QP:19.34 size: 27689
x264 [info]: frame B:94330 Avg QP:21.09 size: 10023
x264 [info]: consecutive B-frames: 3.9% 5.2% 13.0% 42.2% 12.3% 18.7% 2.4% 2.2%
x264 [info]: mb I I16..4: 7.4% 73.9% 18.7%
x264 [info]: mb P I16..4: 1.2% 10.9% 1.5% P16..4: 25.1% 23.4% 7.1% 0.0% 0.0% skip:30.7%
x264 [info]: mb B I16..4: 0.2% 1.8% 0.3% B16..8: 22.3% 11.7% 2.1% direct: 3.0% skip:58.6% L0:40.4% L1:44.6% BI:15.1%
x264 [info]: 8x8 transform intra:79.4% inter:59.6%
x264 [info]: direct mvs spatial:96.5% temporal:3.5%
x264 [info]: coded y,uvDC,uvAC intra: 80.9% 77.9% 51.5% inter: 14.6% 9.6% 4.0%
x264 [info]: i16 v,h,dc,p: 14% 16% 6% 64%
x264 [info]: i8 v,h,dc,ddl,ddr,vr,hd,vl,hu: 10% 9% 6% 9% 13% 12% 14% 12% 15%
x264 [info]: i4 v,h,dc,ddl,ddr,vr,hd,vl,hu: 21% 9% 8% 7% 14% 11% 12% 8% 11%
x264 [info]: i8c dc,h,v,p: 30% 31% 18% 21%
x264 [info]: Weighted P-Frames: Y:4.1% UV:3.0%
x264 [info]: ref P L0: 53.1% 8.6% 16.2% 6.4% 4.6% 3.9% 3.9% 3.0% 0.2% 0.0%
x264 [info]: ref B L0: 78.2% 9.2% 5.2% 3.1% 2.0% 1.4% 0.9%
x264 [info]: ref B L1: 95.7% 4.3%
x264 [info]: kb/s:2994.65

encoded 130333 frames, 9.53 fps, 2994.66 kb/s
GeneralComplete name : D:\Torrents\Ice Age Collection.2002-2016.BDRip, WEB-DLRip.x264.1280x\Ice Age The Meltdown.2006.BDRip.x264.1280x.rip by Frost O.S.mp4Format : MPEG-4Format profile : Base MediaCodec ID : isom (isom)File size : 2.31 GiBDuration : 1 h 30 minOverall bit rate mode : VariableOverall bit rate : 3 646 kb/sEncoded date : UTC 2017-07-06 14:04:52Tagged date : UTC 2017-07-06 14:04:52Writing application : My MP4Box GUI 0.6.0.6

VideoID : 1Format : AVCFormat/Info : Advanced Video CodecFormat profile : High@L4.1Format settings, CABAC : YesFormat settings, ReFrames : 8 framesCodec ID : avc1Codec ID/Info : Advanced Video CodingDuration : 1 h 30 minBit rate : 3 000 kb/sMaximum bit rate : 12.8 Mb/sWidth : 1 280 pixelsHeight : 690 pixelsDisplay aspect ratio : 1.85:1Frame rate mode : ConstantFrame rate : 23.976 (24000/1001) FPSColor space : YUVChroma subsampling : 4:2:0Bit depth : 8 bitsScan type : ProgressiveBits/(Pixel*Frame) : 0.142Stream size : 1.90 GiB (82%)Title : Ice Age The Meltdown.2006.BDRip.x264.1280x.rip by Frost O.S.mp4Writing library : x264 core 148 r2744 b97ae06Encoding settings : cabac=1 / ref=8 / deblock=1:-2:-2 / analyse=0x3:0x113 / me=umh / subme=11 / psy=1 / psy_rd=0.75:0.00 / mixed_ref=1 / me_range=32 / chroma_me=1 / trellis=2 / 8x8dct=1 / cqm=0 / deadzone=21,11 / fast_pskip=0 / chroma_qp_offset=-2 / threads=6 / lookahead_threads=1 / sliced_threads=0 / nr=0 / decimate=0 / interlaced=0 / bluray_compat=0 / constrained_intra=0 / bframes=7 / b_pyramid=2 / b_adapt=2 / b_bias=0 / direct=3 / weightb=1 / open_gop=0 / weightp=2 / keyint=250 / keyint_min=23 / scenecut=40 / intra_refresh=0 / rc=2pass / mbtree=0 / bitrate=3000 / ratetol=1.0 / qcomp=0.70 / qpmin=0 / qpmax=69 / qpstep=4 / cplxblur=20.0 / qblur=0.5 / ip_ratio=1.40 / pb_ratio=1.30 / aq=2:0.90Encoded date : UTC 2017-07-03 16:38:41Tagged date : UTC 2017-07-06 14:05:34Color range : LimitedColor primaries : BT.709Transfer characteristics : BT.709Matrix coefficients : BT.709

Audio #1ID : 2Format : AACFormat/Info : Advanced Audio CodecFormat profile : LCCodec ID : 40Duration : 1 h 30 minBit rate mode : VariableBit rate : 128 kb/sMaximum bit rate : 138 kb/sChannel(s) : 2 channelsChannel positions : Front: L RSampling rate : 48.0 kHzFrame rate : 46.875 FPS (1024 spf)Compression mode : LossyStream size : 82.9 MiB (4%)Title : Russian / Dub, Blu-ray EUREncoded date : UTC 2017-07-06 14:05:20Tagged date : UTC 2017-07-06 14:05:34

Audio #2ID : 3Format : AACFormat/Info : Advanced Audio CodecFormat profile : LCCodec ID : 40Duration : 1 h 30 minBit rate mode : VariableBit rate : 128 kb/sMaximum bit rate : 140 kb/sChannel(s) : 2 channelsChannel positions : Front: L RSampling rate : 48.0 kHzFrame rate : 46.875 FPS (1024 spf)Compression mode : LossyStream size : 82.9 MiB (4%)Title : Ukrainian / Dub, TO (Cikava ideya)Encoded date : UTC 2017-07-06 14:05:23Tagged date : UTC 2017-07-06 14:05:34

Audio #3ID : 4Format : AACFormat/Info : Advanced Audio CodecFormat profile : LCCodec ID : 40Duration : 1 h 30 minBit rate mode : VariableBit rate : 128 kb/sMaximum bit rate : 138 kb/sChannel(s) : 2 channelsChannel positions : Front: L RSampling rate : 48.0 kHzFrame rate : 46.875 FPS (1024 spf)Compression mode : LossyStream size : 82.9 MiB (4%)Title : Russian / DVO, Glanz and KorolevaEncoded date : UTC 2017-07-06 14:05:25Tagged date : UTC 2017-07-06 14:05:34

Audio #4ID : 5Format : AACFormat/Info : Advanced Audio CodecFormat profile : LCCodec ID : 40Duration : 1 h 30 minBit rate mode : VariableBit rate : 128 kb/sMaximum bit rate : 138 kb/sChannel(s) : 2 channelsChannel positions : Front: L RSampling rate : 48.0 kHzFrame rate : 46.875 FPS (1024 spf)Compression mode : LossyStream size : 82.9 MiB (4%)Title : Russian / VO, ChadovEncoded date : UTC 2017-07-06 14:05:27Tagged date : UTC 2017-07-06 14:05:34

Audio #5ID : 6Format : AACFormat/Info : Advanced Audio CodecFormat profile : LCCodec ID : 40Duration : 1 h 30 minBit rate mode : VariableBit rate : 128 kb/sMaximum bit rate : 138 kb/sChannel(s) : 2 channelsChannel positions : Front: L RSampling rate : 48.0 kHzFrame rate : 46.875 FPS (1024 spf)Compression mode : LossyStream size : 82.9 MiB (4%)Title : English / OriginalEncoded date : UTC 2017-07-06 14:05:30Tagged date : UTC 2017-07-06 14:05:34

Text #1ID : 7Format : Timed TextCodec ID : tx3gDuration : 1 h 30 minBit rate mode : VariableBit rate : 68 b/sStream size : 45.1 KiB (0%)Title : Russian / Full (Blu-ray EUR)Forced : NoEncoded date : UTC 2017-07-06 14:05:33Tagged date : UTC 2017-07-06 14:05:34

Text #2ID : 8Format : Timed TextCodec ID : tx3gDuration : 1 h 30 minBit rate mode : VariableBit rate : 43 b/sStream size : 28.4 KiB (0%)Title : English / FullForced : NoEncoded date : UTC 2017-07-06 14:05:34Tagged date : UTC 2017-07-06 14:05:34
</div>
</div>
Ледниковый период 3: Эра динозавров / Ice Age: Dawn of the Dinosaurs
Год выпуска: 2009
Страна: США
Жанр: комедия, приключения, семейный, мультфильм
Продолжительность: 01:34:04
Перевод №1: Русский Профессиональный (полное дублирование) Blu-ray
Перевод №2: Украинский Профессиональный (полное дублирование) Blu-ray
Перевод №3: Русский Авторский (одноголосый закадровый) В.Королёв
Оригинальная дорожка: Есть
Субтитры: русские (Киномания, Full Blu-ray), украинские (Full), английские (Full)Режиссеры: Карлос Салдана / Carlos Saldanha, Майк Трумейер / Mike ThurmeierРоли озвучивали: Джон Легуизамо, Куин Латифа, Денис Лири, Саймон Пегг, Джош Пек, Рэй Романо, Шонн Уильям Скотт, Карен Дишер, Крис Уэдж, Юнис Чо и другие .Описание: К событиям «Ледникового периода 3» жизнь главных героев мультфильма потерпела некоторые изменения. Мамонты Манфред и Элли ожидают появление на свет своего детёныша; саблезубый тигр Диего впал в раздумье о том, не стал ли он слишком «мягкотелым» в компании своих друзей; ленивец Сид, бредя желанием создать собственное племя, решился украсть несколько яиц динозавра. Отправившись спасать Сида, друзья попадают в таинственный растительный мир, скрытый под толщами льда, где они сталкиваются с динозаврами и агрессивной окружающей средой, а так же знакомятся с охотником на динозавров — лаской по имени Бак.

Крысобелка Скрэт (который вновь случайным образом стал виной глобальной проблемы, открыв путь в мир динозавров) по-прежнему гоняется за своим орехом, но на этот раз у него появился конкурент — крысобелка Скрэтти, однако, одновременно с одержимой борьбой за орех, эти двое влюбляются друг в друга. Релиз группы Качество: BDRip / Blu-ray Disc 1080p
Формат: MP4
Видео кодек: H.264
Аудио кодек: AAC
Видео: 1280x690 AR:1.85 3000 kbps 23.976 fps
Аудио №1: [Russian] 2ch 48 kHz 128 kbps - [Dub] Профессиональный (полное дублирование) Blu-ray
Аудио №2: [Ukrainian] 2ch 48 kHz 128 kbps - [Dub] Профессиональный (полное дублирование) Blu-ray
Аудио №3: [Russian] 2ch 48 kHz 128 kbps - [VO] Авторский (одноголосый, закадровый) В.Королёв
Аудио №4: [English] 2ch 48 kHz 128 kbps - Оригинал (английский)
<div class="sp-wrap">
<div class="sp-head folded">Logx264</div>
<div class="sp-body">avs [info]: 1280x690p 1:1 @ 24000/1001 fps (cfr)
x264 [info]: using SAR=1/1
x264 [info]: using cpu capabilities: MMX2 SSE2Fast SSSE3 SSE4.2 AVX FMA3 AVX2 LZCNT BMI2
x264 [info]: profile High, level 4.1

x264 [info]: frame I:1196 Avg QP:16.77 size:120315
x264 [info]: frame P:39057 Avg QP:20.46 size: 28534
x264 [info]: frame B:95051 Avg QP:22.48 size: 9015
x264 [info]: consecutive B-frames: 5.0% 8.1% 9.2% 54.0% 9.5% 10.0% 2.1% 1.5% 0.5%
x264 [info]: mb I I16..4: 4.5% 76.1% 19.5%
x264 [info]: mb P I16..4: 1.6% 12.6% 1.7% P16..4: 27.9% 26.4% 7.1% 0.0% 0.0% skip:22.7%
x264 [info]: mb B I16..4: 0.2% 1.8% 0.3% B16..8: 25.7% 12.3% 1.9% direct: 2.8% skip:55.0% L0:38.6% L1:47.7% BI:13.8%
x264 [info]: 8x8 transform intra:79.1% inter:63.8%
x264 [info]: direct mvs spatial:94.1% temporal:5.9%
x264 [info]: coded y,uvDC,uvAC intra: 81.2% 80.3% 49.3% inter: 15.6% 11.5% 4.0%
x264 [info]: i16 v,h,dc,p: 8% 10% 5% 76%
x264 [info]: i8 v,h,dc,ddl,ddr,vr,hd,vl,hu: 9% 7% 5% 10% 14% 13% 15% 12% 15%
x264 [info]: i4 v,h,dc,ddl,ddr,vr,hd,vl,hu: 22% 6% 6% 7% 14% 12% 13% 9% 11%
x264 [info]: i8c dc,h,v,p: 31% 27% 18% 23%
x264 [info]: Weighted P-Frames: Y:6.8% UV:4.9%
x264 [info]: ref P L0: 58.4% 11.6% 13.9% 5.0% 3.4% 3.1% 2.5% 1.8% 0.2% 0.0%
x264 [info]: ref B L0: 82.9% 8.3% 4.2% 1.7% 1.4% 1.0% 0.5%
x264 [info]: ref B L1: 95.6% 4.4%
x264 [info]: kb/s:2998.58

encoded 135304 frames, 8.99 fps, 2998.59 kb/s
GeneralComplete name : D:\Torrents\Ice Age Collection.2002-2016.BDRip, WEB-DLRip.x264.1280x\Ice Age Dawn of the Dinosaurs.2009.BDRip.x264.1280x.rip by Frost O.S.mp4Format : MPEG-4Format profile : Base MediaCodec ID : isom (isom)File size : 2.31 GiBDuration : 1 h 34 minOverall bit rate mode : VariableOverall bit rate : 3 520 kb/sEncoded date : UTC 2017-07-06 14:15:43Tagged date : UTC 2017-07-06 14:15:43Writing application : My MP4Box GUI 0.6.0.6

VideoID : 1Format : AVCFormat/Info : Advanced Video CodecFormat profile : High@L4.1Format settings, CABAC : YesFormat settings, ReFrames : 8 framesCodec ID : avc1Codec ID/Info : Advanced Video CodingDuration : 1 h 34 minBit rate : 3 000 kb/sMaximum bit rate : 15.4 Mb/sWidth : 1 280 pixelsHeight : 690 pixelsDisplay aspect ratio : 1.85:1Frame rate mode : ConstantFrame rate : 23.976 (24000/1001) FPSColor space : YUVChroma subsampling : 4:2:0Bit depth : 8 bitsScan type : ProgressiveBits/(Pixel*Frame) : 0.142Stream size : 1.97 GiB (85%)Title : Ice Age Dawn of the Dinosaurs.2009.BDRip.x264.1280x.rip by Frost O.S.mp4Writing library : x264 core 148 r2744 b97ae06Encoding settings : cabac=1 / ref=8 / deblock=1:-1:-1 / analyse=0x3:0x113 / me=umh / subme=11 / psy=1 / psy_rd=0.75:0.00 / mixed_ref=1 / me_range=32 / chroma_me=1 / trellis=2 / 8x8dct=1 / cqm=0 / deadzone=21,11 / fast_pskip=0 / chroma_qp_offset=-2 / threads=6 / lookahead_threads=1 / sliced_threads=0 / nr=0 / decimate=0 / interlaced=0 / bluray_compat=0 / constrained_intra=0 / bframes=8 / b_pyramid=2 / b_adapt=2 / b_bias=0 / direct=3 / weightb=1 / open_gop=0 / weightp=2 / keyint=250 / keyint_min=23 / scenecut=40 / intra_refresh=0 / rc=2pass / mbtree=0 / bitrate=3000 / ratetol=1.0 / qcomp=0.80 / qpmin=0 / qpmax=69 / qpstep=4 / cplxblur=20.0 / qblur=0.5 / ip_ratio=1.40 / pb_ratio=1.30 / aq=2:0.90Encoded date : UTC 2017-07-04 09:42:41Tagged date : UTC 2017-07-06 14:16:30Color range : LimitedColor primaries : BT.709Transfer characteristics : BT.709Matrix coefficients : BT.709

Audio #1ID : 2Format : AACFormat/Info : Advanced Audio CodecFormat profile : LCCodec ID : 40Duration : 1 h 34 minBit rate mode : VariableBit rate : 128 kb/sMaximum bit rate : 138 kb/sChannel(s) : 2 channelsChannel positions : Front: L RSampling rate : 48.0 kHzFrame rate : 46.875 FPS (1024 spf)Compression mode : LossyStream size : 86.1 MiB (4%)Title : Russian / Dub, Blu-rayEncoded date : UTC 2017-07-06 14:16:18Tagged date : UTC 2017-07-06 14:16:30

Audio #2ID : 3Format : AACFormat/Info : Advanced Audio CodecFormat profile : LCCodec ID : 40Duration : 1 h 34 minBit rate mode : VariableBit rate : 128 kb/sMaximum bit rate : 138 kb/sChannel(s) : 2 channelsChannel positions : Front: L RSampling rate : 48.0 kHzFrame rate : 46.875 FPS (1024 spf)Compression mode : LossyStream size : 86.1 MiB (4%)Title : Ukrainian / Dub, Blu-rayEncoded date : UTC 2017-07-06 14:16:21Tagged date : UTC 2017-07-06 14:16:30

Audio #3ID : 4Format : AACFormat/Info : Advanced Audio CodecFormat profile : LCCodec ID : 40Duration : 1 h 34 minBit rate mode : VariableBit rate : 128 kb/sMaximum bit rate : 138 kb/sChannel(s) : 2 channelsChannel positions : Front: L RSampling rate : 48.0 kHzFrame rate : 46.875 FPS (1024 spf)Compression mode : LossyStream size : 86.1 MiB (4%)Title : Russian / VO, KorolevEncoded date : UTC 2017-07-06 14:16:24Tagged date : UTC 2017-07-06 14:16:30

Audio #4ID : 5Format : AACFormat/Info : Advanced Audio CodecFormat profile : LCCodec ID : 40Duration : 1 h 34 minBit rate mode : VariableBit rate : 128 kb/sMaximum bit rate : 138 kb/sChannel(s) : 2 channelsChannel positions : Front: L RSampling rate : 48.0 kHzFrame rate : 46.875 FPS (1024 spf)Compression mode : LossyStream size : 86.1 MiB (4%)Title : English / OriginalEncoded date : UTC 2017-07-06 14:16:26Tagged date : UTC 2017-07-06 14:16:30

Text #1ID : 6Format : Timed TextCodec ID : tx3gDuration : 1 h 34 minBit rate mode : VariableBit rate : 59 b/sStream size : 40.7 KiB (0%)Title : Russian / Full (Blu-ray)Forced : NoEncoded date : UTC 2017-07-06 14:16:28Tagged date : UTC 2017-07-06 14:16:30

Text #2ID : 7Format : Timed TextCodec ID : tx3gDuration : 1 h 24 minBit rate mode : VariableBit rate : 65 b/sStream size : 40.3 KiB (0%)Title : Russian / KinomaniyaForced : NoEncoded date : UTC 2017-07-06 14:16:29Tagged date : UTC 2017-07-06 14:16:30

Text #3ID : 8Format : Timed TextCodec ID : tx3gDuration : 1 h 34 minBit rate mode : VariableBit rate : 70 b/sStream size : 48.1 KiB (0%)Title : Ukrainian / FullForced : NoEncoded date : UTC 2017-07-06 14:16:29Tagged date : UTC 2017-07-06 14:16:30

Text #4ID : 9Format : Timed TextCodec ID : tx3gDuration : 1 h 24 minBit rate mode : VariableBit rate : 48 b/sStream size : 29.3 KiB (0%)Title : English / FullForced : NoEncoded date : UTC 2017-07-06 14:16:29Tagged date : UTC 2017-07-06 14:16:30
</div>
</div>
Ледниковый период 4: Континентальный дрейф / Ice Age: Continental Drift
Год выпуска: 2012
Страна: США
Жанр: мультфильм, комедия, приключения, семейный
Продолжительность: 01:27:45
Перевод №1: Русский Профессиональный (полное дублирование) Blu-ray CEE
Перевод №2: Украинский Профессиональный (полное дублирование) Blu-ray CEE
Оригинальная дорожка: Есть
Субтитры: русские (Forced (Blu-ray CEE)), (Full (Blu-ray CEE)), украинские (Forced (Blu-ray CEE)), (Full (Blu-ray CEE)), английские (Full, SDH)Режиссеры: Стив Мартино / Steve Martino, Майк Тёрмайер / Mike ThurmeierРоли озвучивали: Рэй Романо, Джон Легуизамо, Куин Латифа, Дэнис Лири, Джош Пек, Азиз Ансари, Джой Бехар, Кристофер Кэмпбелл, Ален Шаба, Эстер Дин и другие .Описание: После приключений под землей прошло семь лет. Случился дрейф континентов. Главные герои мультфильма, отделённые от стада, вынуждены использовать айсберг в качестве плота. Они пересекают океан и попадают в неизвестные им ранее земли с экзотическими животными и пиратами, враждебно настроенными к ним. Скрэту удаётся получить свой жёлудь, но он перемещается в новые для него земли. Релиз группы Качество: BDRip / рип с Blu-ray 1080p CEE
Формат: MP4
Видео кодек: H.264
Аудио кодек: AAC
Видео: 1280x532 AR:2.41 3000 kbps 23.976 fps
Аудио №1: [Russian] 2ch 48 kHz 128 kbps - [Dub] Профессиональный (полное дублирование) Blu-ray CEE
Аудио №2: [Ukrainian] 2ch 48 kHz 128 kbps - [Dub] Профессиональный (полное дублирование) Blu-ray CEE
Аудио №3: [English] 2ch 48 kHz 128 kbps - Оригинал (английский)
<div class="sp-wrap">
<div class="sp-head folded">Logx264</div>
<div class="sp-body">avs [info]: 1280x532p 1:1 @ 24000/1001 fps (cfr)
x264 [info]: using SAR=1/1
x264 [info]: using cpu capabilities: MMX2 SSE2Fast SSSE3 SSE4.2 AVX FMA3 AVX2 LZCNT BMI2
x264 [info]: profile High, level 4.1

x264 [info]: frame I:1180 Avg QP:16.41 size:105889
x264 [info]: frame P:38010 Avg QP:19.72 size: 27649
x264 [info]: frame B:87050 Avg QP:22.19 size: 9149
x264 [info]: consecutive B-frames: 5.1% 11.7% 9.5% 52.3% 9.7% 8.8% 1.5% 0.8% 0.5%
x264 [info]: mb I I16..4: 4.7% 72.9% 22.4%
x264 [info]: mb P I16..4: 2.0% 14.3% 2.6% P16..4: 29.7% 28.6% 8.6% 0.0% 0.0% skip:14.1%
x264 [info]: mb B I16..4: 0.2% 2.4% 0.5% B16..8: 28.4% 15.3% 2.5% direct: 3.5% skip:47.2% L0:36.5% L1:45.9% BI:17.6%
x264 [info]: 8x8 transform intra:75.6% inter:64.2%
x264 [info]: direct mvs spatial:92.2% temporal:7.8%
x264 [info]: coded y,uvDC,uvAC intra: 80.9% 82.4% 52.4% inter: 19.0% 16.1% 6.2%
x264 [info]: i16 v,h,dc,p: 8% 13% 6% 73%
x264 [info]: i8 v,h,dc,ddl,ddr,vr,hd,vl,hu: 9% 10% 5% 9% 13% 12% 14% 11% 16%
x264 [info]: i4 v,h,dc,ddl,ddr,vr,hd,vl,hu: 29% 9% 5% 6% 12% 10% 11% 7% 10%
x264 [info]: i8c dc,h,v,p: 30% 30% 18% 22%
x264 [info]: Weighted P-Frames: Y:7.5% UV:5.4%
x264 [info]: ref P L0: 59.0% 11.5% 14.1% 4.9% 3.4% 2.9% 2.3% 1.7% 0.2% 0.0%
x264 [info]: ref B L0: 85.7% 6.8% 3.6% 1.5% 1.5% 0.7% 0.3%
x264 [info]: ref B L1: 96.7% 3.3%
x264 [info]: kb/s:2996.63

encoded 126240 frames, 10.06 fps, 2996.63 kb/s
GeneralComplete name : D:\Torrents\Ice Age Collection.2002-2016.BDRip, WEB-DLRip.x264.1280x\Ice Age Continental Drift.2012.BDRip.x264.1280x.rip by Frost O.S.mp4Format : MPEG-4Format profile : Base MediaCodec ID : isom (isom)File size : 2.08 GiBDuration : 1 h 27 minOverall bit rate mode : VariableOverall bit rate : 3 389 kb/sEncoded date : UTC 2017-07-06 14:27:27Tagged date : UTC 2017-07-06 14:27:27Writing application : My MP4Box GUI 0.6.0.6

VideoID : 1Format : AVCFormat/Info : Advanced Video CodecFormat profile : High@L4.1Format settings, CABAC : YesFormat settings, ReFrames : 8 framesCodec ID : avc1Codec ID/Info : Advanced Video CodingDuration : 1 h 27 minBit rate : 3 000 kb/sMaximum bit rate : 10.2 Mb/sWidth : 1 280 pixelsHeight : 532 pixelsDisplay aspect ratio : 2.40:1Frame rate mode : ConstantFrame rate : 23.976 (24000/1001) FPSColor space : YUVChroma subsampling : 4:2:0Bit depth : 8 bitsScan type : ProgressiveBits/(Pixel*Frame) : 0.184Stream size : 1.84 GiB (88%)Title : Ice Age Continental Drift.2012.BDRip.x264.1280x.rip by Frost O.S.mp4Writing library : x264 core 148 r2744 b97ae06Encoding settings : cabac=1 / ref=8 / deblock=1:-1:-1 / analyse=0x3:0x113 / me=umh / subme=11 / psy=1 / psy_rd=0.65:0.00 / mixed_ref=1 / me_range=32 / chroma_me=1 / trellis=2 / 8x8dct=1 / cqm=0 / deadzone=21,11 / fast_pskip=0 / chroma_qp_offset=-2 / threads=6 / lookahead_threads=1 / sliced_threads=0 / nr=0 / decimate=0 / interlaced=0 / bluray_compat=0 / constrained_intra=0 / bframes=8 / b_pyramid=2 / b_adapt=2 / b_bias=0 / direct=3 / weightb=1 / open_gop=0 / weightp=2 / keyint=250 / keyint_min=23 / scenecut=40 / intra_refresh=0 / rc=2pass / mbtree=0 / bitrate=3000 / ratetol=1.0 / qcomp=0.80 / qpmin=0 / qpmax=69 / qpstep=4 / cplxblur=20.0 / qblur=0.5 / ip_ratio=1.40 / pb_ratio=1.30 / aq=2:0.90Encoded date : UTC 2017-07-04 14:24:03Tagged date : UTC 2017-07-06 14:28:05Color range : LimitedColor primaries : BT.709Transfer characteristics : BT.709Matrix coefficients : BT.709

Audio #1ID : 2Format : AACFormat/Info : Advanced Audio CodecFormat profile : LCCodec ID : 40Duration : 1 h 27 minBit rate mode : VariableBit rate : 128 kb/sMaximum bit rate : 138 kb/sChannel(s) : 2 channelsChannel positions : Front: L RSampling rate : 48.0 kHzFrame rate : 46.875 FPS (1024 spf)Compression mode : LossyStream size : 80.3 MiB (4%)Title : Russian / Dub, Blu-ray CEEEncoded date : UTC 2017-07-06 14:27:55Tagged date : UTC 2017-07-06 14:28:05

Audio #2ID : 3Format : AACFormat/Info : Advanced Audio CodecFormat profile : LCCodec ID : 40Duration : 1 h 27 minBit rate mode : VariableBit rate : 128 kb/sMaximum bit rate : 138 kb/sChannel(s) : 2 channelsChannel positions : Front: L RSampling rate : 48.0 kHzFrame rate : 46.875 FPS (1024 spf)Compression mode : LossyStream size : 80.3 MiB (4%)Title : Ukrainian / Dub, Blu-ray CEEEncoded date : UTC 2017-07-06 14:28:00Tagged date : UTC 2017-07-06 14:28:05

Audio #3ID : 4Format : AACFormat/Info : Advanced Audio CodecFormat profile : LCCodec ID : 40Duration : 1 h 27 minBit rate mode : VariableBit rate : 128 kb/sMaximum bit rate : 138 kb/sChannel(s) : 2 channelsChannel positions : Front: L RSampling rate : 48.0 kHzFrame rate : 46.875 FPS (1024 spf)Compression mode : LossyStream size : 80.3 MiB (4%)Title : English / OriginalEncoded date : UTC 2017-07-06 14:28:02Tagged date : UTC 2017-07-06 14:28:05

Text #1ID : 5Format : Timed TextCodec ID : tx3gDuration : 1 h 27 minBit rate mode : VariableBit rate : 4 b/sStream size : 2.47 KiB (0%)Title : Russian / Forced (Blu-ray CEE)Forced : NoEncoded date : UTC 2017-07-06 14:28:04Tagged date : UTC 2017-07-06 14:28:05

Text #2ID : 6Format : Timed TextCodec ID : tx3gDuration : 1 h 27 minBit rate mode : VariableBit rate : 93 b/sStream size : 60.0 KiB (0%)Title : Russian / Full (Blu-ray CEE)Forced : NoEncoded date : UTC 2017-07-06 14:28:04Tagged date : UTC 2017-07-06 14:28:05

Text #3ID : 7Format : Timed TextCodec ID : tx3gDuration : 1 h 27 minBit rate mode : VariableBit rate : 4 b/sStream size : 2.50 KiB (0%)Title : Ukrainian / Forced (Blu-ray CEE)Forced : NoEncoded date : UTC 2017-07-06 14:28:04Tagged date : UTC 2017-07-06 14:28:05

Text #4ID : 8Format : Timed TextCodec ID : tx3gDuration : 1 h 27 minBit rate mode : VariableBit rate : 93 b/sStream size : 59.6 KiB (0%)Title : Ukrainian / Full (Blu-ray CEE)Forced : NoEncoded date : UTC 2017-07-06 14:28:04Tagged date : UTC 2017-07-06 14:28:05

Text #5ID : 9Format : Timed TextCodec ID : tx3gDuration : 1 h 27 minBit rate mode : VariableBit rate : 64 b/sStream size : 41.0 KiB (0%)Title : English / FullForced : NoEncoded date : UTC 2017-07-06 14:28:05Tagged date : UTC 2017-07-06 14:28:05

Text #6ID : 10Format : Timed TextCodec ID : tx3gDuration : 1 h 27 minBit rate mode : VariableBit rate : 81 b/sStream size : 52.2 KiB (0%)Title : English / SDHForced : NoEncoded date : UTC 2017-07-06 14:28:05Tagged date : UTC 2017-07-06 14:28:05
</div>
</div>


Трекер:  [ 06-Июл-2017 20:42 ]

  

Скачать .torrent

Размер .torrent файла 34 KB


Размер: 12.98 GB
Хэш (hash) релиза: 85800233545c2941a69263971cae9790b5444726

Еще никто не оставлял запись к записи скачать торрент [MULT] Ледниковый период: Коллекция Ice Age: Collection . Будь первым!

!Обратная связь