Скачать через торрент [MULT] Ледниковый период 4: Континентальный дрейф Ice Age: Continental Drift бесплатно русская версия torrent активатор

Если у вас наблюдаются проблемы со скриншотами, переходом по ссылками, скачиванием торрентов - проблемы в блокировщике рекламы AdBlock. #хорошегоДня!


Статистика раздачи
Размер:  2.08 GB   |    Зарегистрирован:  1 месяц 17 дней   |    .torrent скачан:  31 раз   |   
Раздают:  1  
   
Загрузка...
 
Автор Сообщение

Galfimbul

avatar Galfimbul


Ледниковый период 4: Континентальный дрейф / Ice Age: Continental Drift[Локализованный видеоряд]
Год выпуска: 2012
Страна: США
Жанр: мультфильм, комедия, приключения, семейный
Продолжительность: 01:27:45
Перевод №1: Русский Профессиональный (полное дублирование) Blu-ray CEE
Перевод №2: Украинский Профессиональный (полное дублирование) Blu-ray CEE
Оригинальная дорожка: Есть
Субтитры: русские (Forced (Blu-ray CEE)), (Full (Blu-ray CEE)), украинские (Forced (Blu-ray CEE)), (Full (Blu-ray CEE)), английские (Full, SDH)Режиссеры: Стив Мартино / Steve Martino, Майк Тёрмайер / Mike ThurmeierРоли озвучивали: Рэй Романо, Джон Легуизамо, Куин Латифа, Дэнис Лири, Джош Пек, Азиз Ансари, Джой Бехар, Кристофер Кэмпбелл, Ален Шаба, Эстер Дин и другие .Описание: После приключений под землей прошло семь лет. Случился дрейф континентов. Главные герои мультфильма, отделённые от стада, вынуждены использовать айсберг в качестве плота. Они пересекают океан и попадают в неизвестные им ранее земли с экзотическими животными и пиратами, враждебно настроенными к ним. Скрэту удаётся получить свой жёлудь, но он перемещается в новые для него земли. Релиз группы Качество: BDRip / рип с Blu-ray 1080p CEE
Формат: MP4
Видео кодек: H.264
Аудио кодек: AAC
Видео: 1280x532 AR:2.41 3000 kbps 23.976 fps
Аудио №1: [Russian] 2ch 48 kHz 128 kbps - [Dub] Профессиональный (полное дублирование) Blu-ray CEE
Аудио №2: [Ukrainian] 2ch 48 kHz 128 kbps - [Dub] Профессиональный (полное дублирование) Blu-ray CEE
Аудио №3: [English] 2ch 48 kHz 128 kbps - Оригинал (английский)
avs [info]: 1280x532p 1:1 @ 24000/1001 fps (cfr)
x264 [info]: using SAR=1/1
x264 [info]: using cpu capabilities: MMX2 SSE2Fast SSSE3 SSE4.2 AVX FMA3 AVX2 LZCNT BMI2
x264 [info]: profile High, level 4.1

x264 [info]: frame I:1183 Avg QP:16.29 size:106354
x264 [info]: frame P:37680 Avg QP:19.61 size: 27930
x264 [info]: frame B:87377 Avg QP:22.09 size: 9092
x264 [info]: consecutive B-frames: 5.0% 11.1% 9.5% 53.0% 9.7% 8.8% 1.5% 0.8% 0.5%
x264 [info]: mb I I16..4: 4.7% 72.0% 23.4%
x264 [info]: mb P I16..4: 2.3% 15.3% 2.8% P16..4: 29.6% 28.3% 8.6% 0.0% 0.0% skip:13.1%
x264 [info]: mb B I16..4: 0.3% 2.6% 0.5% B16..8: 27.8% 15.1% 2.4% direct: 3.4% skip:47.9% L0:36.1% L1:45.6% BI:18.4%
x264 [info]: 8x8 transform intra:75.0% inter:64.2%
x264 [info]: direct mvs spatial:92.6% temporal:7.4%
x264 [info]: coded y,uvDC,uvAC intra: 79.5% 81.5% 51.3% inter: 18.6% 15.8% 6.2%
x264 [info]: i16 v,h,dc,p: 8% 15% 6% 70%
x264 [info]: i8 v,h,dc,ddl,ddr,vr,hd,vl,hu: 10% 11% 6% 9% 12% 11% 14% 11% 16%
x264 [info]: i4 v,h,dc,ddl,ddr,vr,hd,vl,hu: 30% 10% 6% 6% 12% 9% 11% 7% 10%
x264 [info]: i8c dc,h,v,p: 30% 31% 18% 22%
x264 [info]: Weighted P-Frames: Y:7.4% UV:5.4%
x264 [info]: ref P L0: 59.4% 11.5% 14.0% 4.8% 3.4% 2.8% 2.3% 1.7% 0.1% 0.0%
x264 [info]: ref B L0: 85.8% 6.7% 3.5% 1.5% 1.5% 0.7% 0.3%
x264 [info]: ref B L1: 96.7% 3.3%
x264 [info]: kb/s:2997.22

encoded 126240 frames, 10.04 fps, 2997.22 kb/s
GeneralComplete name : D:\Torrents\Ice Age Continental Drift.(Localizovannuy_videoryad).2012.BDRip.x264.1280x.rip by Frost O.S.mp4Format : MPEG-4Format profile : Base MediaCodec ID : isom (isom)File size : 2.08 GiBDuration : 1 h 27 minOverall bit rate mode : VariableOverall bit rate : 3 389 kb/sEncoded date : UTC 2017-07-06 16:29:47Tagged date : UTC 2017-07-06 16:29:47Writing application : My MP4Box GUI 0.6.0.6

VideoID : 1Format : AVCFormat/Info : Advanced Video CodecFormat profile : High@L4.1Format settings, CABAC : YesFormat settings, ReFrames : 8 framesCodec ID : avc1Codec ID/Info : Advanced Video CodingDuration : 1 h 27 minBit rate : 3 000 kb/sMaximum bit rate : 10.2 Mb/sWidth : 1 280 pixelsHeight : 532 pixelsDisplay aspect ratio : 2.40:1Frame rate mode : ConstantFrame rate : 23.976 (24000/1001) FPSColor space : YUVChroma subsampling : 4:2:0Bit depth : 8 bitsScan type : ProgressiveBits/(Pixel*Frame) : 0.184Stream size : 1.84 GiB (88%)Writing library : x264 core 148 r2744 b97ae06Encoding settings : cabac=1 / ref=8 / deblock=1:-1:-1 / analyse=0x3:0x113 / me=umh / subme=11 / psy=1 / psy_rd=0.55:0.00 / mixed_ref=1 / me_range=32 / chroma_me=1 / trellis=2 / 8x8dct=1 / cqm=0 / deadzone=21,11 / fast_pskip=0 / chroma_qp_offset=-2 / threads=6 / lookahead_threads=1 / sliced_threads=0 / nr=0 / decimate=0 / interlaced=0 / bluray_compat=0 / constrained_intra=0 / bframes=8 / b_pyramid=2 / b_adapt=2 / b_bias=0 / direct=3 / weightb=1 / open_gop=0 / weightp=2 / keyint=250 / keyint_min=23 / scenecut=40 / intra_refresh=0 / rc=2pass / mbtree=0 / bitrate=3000 / ratetol=1.0 / qcomp=0.80 / qpmin=0 / qpmax=69 / qpstep=4 / cplxblur=20.0 / qblur=0.5 / ip_ratio=1.40 / pb_ratio=1.30 / aq=2:0.90Encoded date : UTC 2017-07-05 09:54:07Tagged date : UTC 2017-07-06 16:31:11Color range : LimitedColor primaries : BT.709Transfer characteristics : BT.709Matrix coefficients : BT.709

Audio #1ID : 2Format : AACFormat/Info : Advanced Audio CodecFormat profile : LCCodec ID : 40Duration : 1 h 27 minBit rate mode : VariableBit rate : 128 kb/sMaximum bit rate : 138 kb/sChannel(s) : 2 channelsChannel positions : Front: L RSampling rate : 48.0 kHzFrame rate : 46.875 FPS (1024 spf)Compression mode : LossyStream size : 80.3 MiB (4%)Title : Russian / Dub, Blu-ray CEEEncoded date : UTC 2017-07-06 16:30:22Tagged date : UTC 2017-07-06 16:31:11

Audio #2ID : 3Format : AACFormat/Info : Advanced Audio CodecFormat profile : LCCodec ID : 40Duration : 1 h 27 minBit rate mode : VariableBit rate : 128 kb/sMaximum bit rate : 138 kb/sChannel(s) : 2 channelsChannel positions : Front: L RSampling rate : 48.0 kHzFrame rate : 46.875 FPS (1024 spf)Compression mode : LossyStream size : 80.3 MiB (4%)Title : Ukrainian / Dub, Blu-ray CEEEncoded date : UTC 2017-07-06 16:30:41Tagged date : UTC 2017-07-06 16:31:11

Audio #3ID : 4Format : AACFormat/Info : Advanced Audio CodecFormat profile : LCCodec ID : 40Duration : 1 h 27 minBit rate mode : VariableBit rate : 128 kb/sMaximum bit rate : 138 kb/sChannel(s) : 2 channelsChannel positions : Front: L RSampling rate : 48.0 kHzFrame rate : 46.875 FPS (1024 spf)Compression mode : LossyStream size : 80.3 MiB (4%)Title : English / OriginalEncoded date : UTC 2017-07-06 16:30:55Tagged date : UTC 2017-07-06 16:31:11

Text #1ID : 5Format : Timed TextCodec ID : tx3gDuration : 1 h 27 minBit rate mode : VariableBit rate : 4 b/sStream size : 2.47 KiB (0%)Title : Russian / Forced (Blu-ray CEE)Forced : NoEncoded date : UTC 2017-07-06 16:31:10Tagged date : UTC 2017-07-06 16:31:11

Text #2ID : 6Format : Timed TextCodec ID : tx3gDuration : 1 h 27 minBit rate mode : VariableBit rate : 93 b/sStream size : 60.0 KiB (0%)Title : Russian / Full (Blu-ray CEE)Forced : NoEncoded date : UTC 2017-07-06 16:31:11Tagged date : UTC 2017-07-06 16:31:11

Text #3ID : 7Format : Timed TextCodec ID : tx3gDuration : 1 h 27 minBit rate mode : VariableBit rate : 4 b/sStream size : 2.50 KiB (0%)Title : Ukrainian / Forced (Blu-ray CEE)Forced : NoEncoded date : UTC 2017-07-06 16:31:11Tagged date : UTC 2017-07-06 16:31:11

Text #4ID : 8Format : Timed TextCodec ID : tx3gDuration : 1 h 27 minBit rate mode : VariableBit rate : 93 b/sStream size : 59.6 KiB (0%)Title : Ukrainian / Full (Blu-ray CEE)Forced : NoEncoded date : UTC 2017-07-06 16:31:11Tagged date : UTC 2017-07-06 16:31:11

Text #5ID : 9Format : Timed TextCodec ID : tx3gDuration : 1 h 27 minBit rate mode : VariableBit rate : 64 b/sStream size : 41.0 KiB (0%)Title : English / FullForced : NoEncoded date : UTC 2017-07-06 16:31:11Tagged date : UTC 2017-07-06 16:31:11

Text #6ID : 10Format : Timed TextCodec ID : tx3gDuration : 1 h 27 minBit rate mode : VariableBit rate : 81 b/sStream size : 52.2 KiB (0%)Title : English / SDHForced : NoEncoded date : UTC 2017-07-06 16:31:11Tagged date : UTC 2017-07-06 16:31:11


Трекер:  [ 06-Июл-2017 20:42 ]

  

Скачать .torrent

Размер .torrent файла 11 KB


Размер: 2.08 GB
Хэш (hash) релиза: e5c5b73b9f66a5b2dc381943aa0a752ee9ddc07e

Торренты, похожие на [MULT] Ледниковый период 4: Континентальный дрейф Ice Age: Continental Drift скачать торрент

Форум Название Автор Размер S L Добавлен
Видео (Фильмы/Клипы) ·· [MULT] Ледниковый период 4: Континентальный дрейф / Ice Age: Continental Drift (Стив Мартино / Steve Martino, Майк Тёрмайер / Mike Thurmeier) [2012, мультфильм, комедия, приключения, семейный, HDRip] [MP4, 480x] [Локализованный видеоряд] Galfimbul 415650075396 MB 0 0 1499362975

20:42

6-Июл-17

Еще никто не оставлял запись к записи скачать торрент [MULT] Ледниковый период 4: Континентальный дрейф Ice Age: Continental Drift . Будь первым!

!Обратная связь