Скачать через торрент [MULT] Ледниковый период: Столкновение неизбежно Ice Age: Collision Course бесплатно русская версия torrent активатор

Если у вас наблюдаются проблемы со скриншотами, переходом по ссылками, скачиванием торрентов - проблемы в блокировщике рекламы AdBlock. #хорошегоДня!


Статистика раздачи
Размер:  2.24 GB   |    Зарегистрирован:  3 месяца 11 дней   |    .torrent скачан:  34 раза   |   
Раздают:  1  
   
Загрузка...
 
Автор Сообщение

Galfimbul

avatar Galfimbul


Ледниковый период: Столкновение неизбежно / Ice Age: Collision Course[Локализованный видеоряд]
Год выпуска: 2016
Страна: Twentieth Century Fox Film Corporation
Жанр: мультфильм, фантастика, комедия, приключения, семейный
Продолжительность: 01:34:32
Перевод №1: Русский Профессиональный (полное дублирование) Blu-ray EUR
Перевод №2: Украинский Профессиональный (полное дублирование) Blu-ray EUR
Оригинальная дорожка: Есть
Субтитры: русские (Forced (Blu-ray EUR)), (Full (Blu-ray EUR)), украинские (Forced (Blu-ray EUR)), (Full (Blu-ray EUR)), английские (Full, SDH)Режиссеры: Майк Тёрмайер / Mike Thurmeier, Гален Т. Чу / Galen T. ChuРоли озвучивали: Рэй Романо, Джон Легуизамо, Дэнис Лири, Куин Латифа, Шонн Уильям Скотт, Саймон Пегг, Дженнифер Лопез, Нил Тайсон, Джесси Тайлер Фергюсон, Джесси Джей и другие.Описание: Отчаянная погоня за неуловимым желудем катапультирует Скрата прямо в космос, где он случайно запускает целую серию космических событий. Именно они изменят весь мир Ледникового периода и станут реальной угрозой для него. Чтобы спастись, Сид, Мэнни, Диего и остальные звери должны покинуть свои дома, отправиться в забавное и захватывающее приключение в экзотические новые земли и встретиться со множеством красочных новых персонажей. Релиз группы Качество: BDRip / рип с BDRemux 1080p[EUR]
Формат: MP4
Видео кодек: H.264
Аудио кодек: AAC
Видео: 1280x532 AR:2.41 3000 kbps 23.976 fps
Аудио №1: [Russian] 2ch 48 kHz 128 kbps - [Dub] Профессиональный (полное дублирование) Blu-ray 1080p EUR
Аудио №2: [Ukrainian] 2ch 48 kHz 128 kbps - [Dub] Профессиональный (полное дублирование) Blu-ray 1080p EUR
Аудио №3: [English] 2ch 48 kHz 128 kbps - Оригинал (английский)
avs [info]: 1280x532p 1:1 @ 24000/1001 fps (cfr)
x264 [info]: using SAR=1/1
x264 [info]: using cpu capabilities: MMX2 SSE2Fast SSSE3 SSE4.2 AVX FMA3 AVX2 LZCNT BMI2
x264 [info]: profile High, level 4.1

x264 [info]: frame I:1252 Avg QP:16.41 size:111618
x264 [info]: frame P:39860 Avg QP:19.86 size: 28680
x264 [info]: frame B:94898 Avg QP:22.20 size: 8888
x264 [info]: consecutive B-frames: 5.5% 6.6% 20.6% 35.0% 15.4% 14.1% 1.6% 1.2%
x264 [info]: mb I I16..4: 2.9% 74.1% 23.0%
x264 [info]: mb P I16..4: 1.4% 15.1% 2.8% P16..4: 30.5% 28.8% 9.5% 0.0% 0.0% skip:12.0%
x264 [info]: mb B I16..4: 0.2% 2.5% 0.5% B16..8: 27.0% 14.8% 2.6% direct: 3.7% skip:48.5% L0:38.8% L1:43.6% BI:17.6%
x264 [info]: 8x8 transform intra:77.6% inter:63.7%
x264 [info]: direct mvs spatial:93.5% temporal:6.5%
x264 [info]: coded y,uvDC,uvAC intra: 84.6% 89.3% 65.4% inter: 18.6% 18.6% 8.6%
x264 [info]: i16 v,h,dc,p: 5% 11% 4% 79%
x264 [info]: i8 v,h,dc,ddl,ddr,vr,hd,vl,hu: 10% 10% 5% 9% 12% 12% 13% 12% 16%
x264 [info]: i4 v,h,dc,ddl,ddr,vr,hd,vl,hu: 30% 7% 5% 6% 12% 10% 11% 8% 10%
x264 [info]: i8c dc,h,v,p: 32% 25% 17% 25%
x264 [info]: Weighted P-Frames: Y:9.3% UV:7.6%
x264 [info]: ref P L0: 56.5% 13.2% 13.6% 5.7% 3.9% 2.9% 2.3% 1.6% 0.2% 0.0%
x264 [info]: ref B L0: 82.2% 7.8% 4.2% 2.2% 2.3% 0.9% 0.4%
x264 [info]: ref B L1: 96.2% 3.8%
x264 [info]: kb/s:2998.76

encoded 136010 frames, 9.95 fps, 2998.76 kb/s
GeneralComplete name : D:\Torrents\Ice Age Collision Course.(Localizovannuy_videoryad).2016.BDRip.x264.1280x.rip by Frost O.S).mp4Format : MPEG-4Format profile : Base MediaCodec ID : isom (isom)File size : 2.24 GiBDuration : 1 h 34 minOverall bit rate mode : VariableOverall bit rate : 3 391 kb/sEncoded date : UTC 2017-07-06 16:53:48Tagged date : UTC 2017-07-06 16:53:48Writing application : My MP4Box GUI 0.6.0.6

VideoID : 1Format : AVCFormat/Info : Advanced Video CodecFormat profile : High@L4.1Format settings, CABAC : YesFormat settings, ReFrames : 8 framesCodec ID : avc1Codec ID/Info : Advanced Video CodingDuration : 1 h 34 minBit rate : 3 000 kb/sMaximum bit rate : 13.7 Mb/sWidth : 1 280 pixelsHeight : 532 pixelsDisplay aspect ratio : 2.40:1Frame rate mode : ConstantFrame rate : 23.976 (24000/1001) FPSColor space : YUVChroma subsampling : 4:2:0Bit depth : 8 bitsScan type : ProgressiveBits/(Pixel*Frame) : 0.184Stream size : 1.98 GiB (88%)Writing library : x264 core 148 r2744 b97ae06Encoding settings : cabac=1 / ref=8 / deblock=1:-1:-1 / analyse=0x3:0x113 / me=umh / subme=11 / psy=1 / psy_rd=0.60:0.00 / mixed_ref=1 / me_range=32 / chroma_me=1 / trellis=2 / 8x8dct=1 / cqm=0 / deadzone=21,11 / fast_pskip=0 / chroma_qp_offset=-2 / threads=6 / lookahead_threads=1 / sliced_threads=0 / nr=0 / decimate=0 / interlaced=0 / bluray_compat=0 / constrained_intra=0 / bframes=7 / b_pyramid=2 / b_adapt=2 / b_bias=0 / direct=3 / weightb=1 / open_gop=0 / weightp=2 / keyint=250 / keyint_min=23 / scenecut=40 / intra_refresh=0 / rc=2pass / mbtree=0 / bitrate=3000 / ratetol=1.0 / qcomp=0.80 / qpmin=0 / qpmax=69 / qpstep=4 / cplxblur=20.0 / qblur=0.5 / ip_ratio=1.40 / pb_ratio=1.30 / aq=3:0.90Encoded date : UTC 2017-07-05 14:54:09Tagged date : UTC 2017-07-06 16:55:05Color range : LimitedColor primaries : BT.709Transfer characteristics : BT.709Matrix coefficients : BT.709

Audio #1ID : 2Format : AACFormat/Info : Advanced Audio CodecFormat profile : LCCodec ID : 40Duration : 1 h 34 minBit rate mode : VariableBit rate : 128 kb/sMaximum bit rate : 138 kb/sChannel(s) : 2 channelsChannel positions : Front: L RSampling rate : 48.0 kHzFrame rate : 46.875 FPS (1024 spf)Compression mode : LossyStream size : 86.6 MiB (4%)Title : Russian / Dub, Blu-ray EUREncoded date : UTC 2017-07-06 16:54:28Tagged date : UTC 2017-07-06 16:55:05

Audio #2ID : 3Format : AACFormat/Info : Advanced Audio CodecFormat profile : LCCodec ID : 40Duration : 1 h 34 minBit rate mode : VariableBit rate : 128 kb/sMaximum bit rate : 138 kb/sChannel(s) : 2 channelsChannel positions : Front: L RSampling rate : 48.0 kHzFrame rate : 46.875 FPS (1024 spf)Compression mode : LossyStream size : 86.6 MiB (4%)Title : Ukrainian / Dub, Blu-ray EUREncoded date : UTC 2017-07-06 16:54:39Tagged date : UTC 2017-07-06 16:55:05

Audio #3ID : 4Format : AACFormat/Info : Advanced Audio CodecFormat profile : LCCodec ID : 40Duration : 1 h 34 minBit rate mode : VariableBit rate : 128 kb/sMaximum bit rate : 138 kb/sChannel(s) : 2 channelsChannel positions : Front: L RSampling rate : 48.0 kHzFrame rate : 46.875 FPS (1024 spf)Compression mode : LossyStream size : 86.5 MiB (4%)Title : English / OriginalEncoded date : UTC 2017-07-06 16:54:52Tagged date : UTC 2017-07-06 16:55:05

Text #1ID : 5Format : Timed TextCodec ID : tx3gDuration : 1 h 34 minBit rate mode : VariableBit rate : 0 b/sStream size : 119 Bytes (0%)Title : Russian / Forced (Blu-ray EUR)Forced : NoEncoded date : UTC 2017-07-06 16:55:04Tagged date : UTC 2017-07-06 16:55:05

Text #2ID : 6Format : Timed TextCodec ID : tx3gDuration : 1 h 34 minBit rate mode : VariableBit rate : 97 b/sStream size : 66.9 KiB (0%)Title : Russian / Full (Blu-ray EUR)Forced : NoEncoded date : UTC 2017-07-06 16:55:05Tagged date : UTC 2017-07-06 16:55:05

Text #3ID : 7Format : Timed TextCodec ID : tx3gDuration : 1 h 34 minBit rate mode : VariableBit rate : 0 b/sStream size : 156 Bytes (0%)Title : Ukrainian / Forced (Blu-ray EUR)Forced : NoEncoded date : UTC 2017-07-06 16:55:05Tagged date : UTC 2017-07-06 16:55:05

Text #4ID : 8Format : Timed TextCodec ID : tx3gDuration : 1 h 34 minBit rate mode : VariableBit rate : 97 b/sStream size : 67.1 KiB (0%)Title : Ukrainian / Full (Blu-ray EUR)Forced : NoEncoded date : UTC 2017-07-06 16:55:05Tagged date : UTC 2017-07-06 16:55:05

Text #5ID : 9Format : Timed TextCodec ID : tx3gDuration : 1 h 24 minBit rate mode : VariableBit rate : 69 b/sStream size : 42.7 KiB (0%)Title : English / FullForced : NoEncoded date : UTC 2017-07-06 16:55:05Tagged date : UTC 2017-07-06 16:55:05

Text #6ID : 10Format : Timed TextCodec ID : tx3gDuration : 1 h 29 minBit rate mode : VariableBit rate : 87 b/sStream size : 57.0 KiB (0%)Title : English / SDHForced : NoEncoded date : UTC 2017-07-06 16:55:05Tagged date : UTC 2017-07-06 16:55:05


Трекер:  [ 06-Июл-2017 20:42 ]

  

Скачать .torrent

Размер .torrent файла 11 KB


Размер: 2.24 GB
Хэш (hash) релиза: b7bf6296a1cbb7dbb8eda8c685b49fbb6d6c4a38

Еще никто не оставлял запись к записи скачать торрент [MULT] Ледниковый период: Столкновение неизбежно Ice Age: Collision Course . Будь первым!

!Обратная связь