Скачать через торрент [MULT] Ледниковый период 4: Континентальный дрейф Ice Age: Continental Drift бесплатно русская версия torrent активатор

Если у вас наблюдаются проблемы со скриншотами, переходом по ссылками, скачиванием торрентов - проблемы в блокировщике рекламы AdBlock. #хорошегоДня!


Статистика раздачи
Размер:  396 MB   |    Зарегистрирован:  3 месяца 10 дней   |    .torrent скачан:  34 раза   |   
Раздают:  1  
   
Загрузка...
 
Автор Сообщение

Galfimbul

avatar Galfimbul


Ледниковый период 4: Континентальный дрейф / Ice Age: Continental Drift[Локализованный видеоряд]
Год выпуска: 2012
Страна: США
Жанр: мультфильм, комедия, приключения, семейный
Продолжительность: 01:27:45
Перевод: Русский Профессиональный (полное дублирование) Blu-ray CEE
Субтитры: нетРежиссеры: Стив Мартино / Steve Martino, Майк Тёрмайер / Mike ThurmeierРоли озвучивали: Рэй Романо, Джон Легуизамо, Куин Латифа, Дэнис Лири, Джош Пек, Азиз Ансари, Джой Бехар, Кристофер Кэмпбелл, Ален Шаба, Эстер Дин и другие .Описание: После приключений под землей прошло семь лет. Случился дрейф континентов. Главные герои мультфильма, отделённые от стада, вынуждены использовать айсберг в качестве плота. Они пересекают океан и попадают в неизвестные им ранее земли с экзотическими животными и пиратами, враждебно настроенными к ним. Скрэту удаётся получить свой жёлудь, но он перемещается в новые для него земли. Релиз группы Качество: HDRip / рип с BDRip 1080p
Формат: MP4
Видео кодек: XviD
Аудио кодек: AAC
Видео: 480x200 AR:2.40 500 kbps 23.976 fps
Аудио: [Russian] 2ch 48 kHz 128 kbps - [Dub] Профессиональный (полное дублирование) Blu-ray CEE
GeneralComplete name : D:\Torrents\Ice Age Continental Drift.(Localizovannuy_videoryad).2012.HDRip.XviD.480x.rip by Frost O.S.mp4Format : MPEG-4Format profile : Base MediaCodec ID : isom (isom)File size : 396 MiBDuration : 1 h 27 minOverall bit rate mode : VariableOverall bit rate : 632 kb/sEncoded date : UTC 2017-07-06 17:07:07Tagged date : UTC 2017-07-06 17:07:07Writing application : My MP4Box GUI 0.6.0.6

VideoID : 1Format : MPEG-4 VisualFormat profile : Advanced Simple@L5Format settings, BVOP : YesFormat settings, QPel : NoFormat settings, GMC : No warppointsFormat settings, Matrix : CustomCodec ID : 20Duration : 1 h 27 minBit rate mode : VariableBit rate : 500 kb/sMaximum bit rate : 1 928 kb/sWidth : 480 pixelsHeight : 200 pixelsDisplay aspect ratio : 2.40:1Frame rate mode : ConstantFrame rate : 23.976 (24000/1001) FPSColor space : YUVChroma subsampling : 4:2:0Bit depth : 8 bitsScan type : ProgressiveCompression mode : LossyBits/(Pixel*Frame) : 0.217Stream size : 314 MiB (79%)Writing library : XviD 1.2.1 (UTC 2008-12-04)Encoded date : UTC 2017-07-06 17:07:07Tagged date : UTC 2017-07-06 17:07:14

AudioID : 2Format : AACFormat/Info : Advanced Audio CodecFormat profile : LCCodec ID : 40Duration : 1 h 27 minBit rate mode : VariableBit rate : 128 kb/sMaximum bit rate : 138 kb/sChannel(s) : 2 channelsChannel positions : Front: L RSampling rate : 48.0 kHzFrame rate : 46.875 FPS (1024 spf)Compression mode : LossyStream size : 80.3 MiB (20%)Title : Russian / Dub, Blu-ray CEEEncoded date : UTC 2017-07-06 17:07:12Tagged date : UTC 2017-07-06 17:07:14


Трекер:  [ 06-Июл-2017 20:42 ]

  

Скачать .torrent

Размер .torrent файла 16 KB


Размер: 396 MB
Хэш (hash) релиза: 07ddd61103fb34e12d7bc96694cdf41f5819dafc

Торренты, похожие на [MULT] Ледниковый период 4: Континентальный дрейф Ice Age: Continental Drift скачать торрент

Форум Название Автор Размер S L Добавлен
Видео (Фильмы/Клипы) ·· [MULT] Ледниковый период 4: Континентальный дрейф / Ice Age: Continental Drift (Стив Мартино / Steve Martino, Майк Тёрмайер / Mike Thurmeier) [2012, мультфильм, комедия, приключения, семейный, BDRip] [MP4, 1280x] [Локализованный видеоряд] Galfimbul 22307314632.08 GB 0 0 1499362985

20:43

6-Июл-17

Еще никто не оставлял запись к записи скачать торрент [MULT] Ледниковый период 4: Континентальный дрейф Ice Age: Continental Drift . Будь первым!

!Обратная связь