Скачать через торрент Футурама Futurama Фильм бесплатно в хорошем качестве torrent

Скачивайте на UnionPeer.org фильмы через торрент без регистрации. Новинки кино в хорошем качестве через торрент. На UnionPeer.org можно скачать через торрент фильмы 2014 и 2015 годов. Самые новые фильмы.

Скачать торрент Футурама Futurama бесплатно через .torrent фильм мультфильм сериал

Если у вас наблюдаются проблемы со скриншотами, переходом по ссылками, скачиванием торрентов - проблемы в блокировщике рекламы AdBlock. #хорошегоДня!


Статистика раздачи
Размер:  6.05 GB   |    Зарегистрирован:  2 месяца 14 дней   |    .torrent скачан:  19 раз   |   
Раздают:  1  
   
Загрузка...
 
Автор Сообщение

Galfimbul

avatar Galfimbul


Футурама / Futurama

Страна: США
Жанр: Фантастика, комедия
Продолжительность серии: 00:21:35
Год выпуска: 1999
Перевод: Профессиональный (многоголосый закадровый) Гемини-Фильм <img class="smile" src="//static.t-ru.org/smiles/icon_exclaim.gif" alt="">
Русские субтитры: нет

Режиссёр: Мэтт Грейнинг / Matt Groening
Описание: О фильме: Филипп Фрай был заморожен в криогенной камере и проснулся тысячу лет спустя. Фрай встречает своих новых друзей — одноглазую инопланетянку Лилу и робота Бендера «Сгибальщика» Родригеса, а также своего дальнего родственника — прапрапра...племянника профессора Хьюберта Фарнсворта, которому принадлежит курьерская компания. Фрай с друзьями становится межгалактическим курьером и знакомится с остальным штатом компании: Эми Вонг, доктором Зоидбергом и Гермесом Конрадом.

Список серий:
01. Космический Пилот 3000 (Space Pilot 3000)
02. Следующая остановка - Луна (Episode Two: The Series Has Landed)
03. Сосед поневоле (I Roomate)
04. Затерянный в космосе галактический любовник (Love Labour's Lost In Space)
05. Планета роботов-убийц (Fear of a Bot Planet)
06. Золотая рыбка (A Fishful of Dollars)
07. Три моих солнца (My Three Suns)
08. "Большая куча мусора (A Big Piece of Garbage)
09. Ад - это другие роботы (Hell Is Other Robots)


Ссылка на предыдущие и альтернативные раздачи:
Семпл: http://multi-up.com/1160388
Качество: VHSRip
Формат: MPEG2
Видео: MPEG2 Video, 720x576, 25.00 fps, ~4600 Kbps
Аудио: AC3, 48 KHz, Hi-Fi stereo, 256Kbps
Субтитры: отсутствуют

Информация о релизе: данный перевод выпускался только на видеокассетах Гемини фильм - да там те же актёры озвучки, но совсем другой перевод. Даже Симпсонов в озвучке гемини мне не удалось обнаружить на трекере (насколько мне известно как минимум 10 кассет выпускалось) <img class="smile" src="//static.t-ru.org/smiles/icon_cool.gif" alt="">
Ищутся 3 и 4 кассеты Футурамы, либо оцифровки с них
Complete name : B:\раздачи\Футурама\S01E02.mpgFormat : MPEG-PSFile size : 685 MiBDuration : 21 min 31 sOverall bit rate mode : VariableOverall bit rate : 4 448 kb/sWriting library : (dvd5: Oct 19 2015)

VideoID : 224 (0xE0)Format : MPEG VideoFormat version : Version 2Format profile : Main@MainFormat settings, BVOP : YesFormat settings, Matrix : CustomFormat settings, GOP : M=3, N=12Format settings, picture structure : FrameDuration : 21 min 31 sBit rate mode : VariableBit rate : 4 103 kb/sMaximum bit rate : 8 000 kb/sWidth : 720 pixelsHeight : 576 pixelsDisplay aspect ratio : 4:3Frame rate : 25.000 FPSStandard : PALColor space : YUVChroma subsampling : 4:2:0Bit depth : 8 bitsScan type : InterlacedScan order : Top Field FirstCompression mode : LossyBits/(Pixel*Frame) : 0.396Time code of first frame : 00:00:00:00Time code source : Group of pictures headerGOP, Open/Closed : OpenGOP, Open/Closed of first frame : ClosedStream size : 632 MiB (92%)Writing library : (dvd5: Oct 19 2015)

AudioID : 189 (0xBD)-128 (0x80)Format : AC-3Format/Info : Audio Coding 3Format settings, Endianness : BigMuxing mode : DVD-VideoDuration : 21 min 31 sBit rate mode : ConstantBit rate : 256 kb/sChannel(s) : 2 channelsChannel positions : Front: L RSampling rate : 48.0 kHzFrame rate : 31.250 FPS (1536 spf)Bit depth : 16 bitsCompression mode : LossyStream size : 39.4 MiB (6%)Service kind : Complete Main


Трекер:  [ 06-Июл-2017 08:54 ]

  

Скачать .torrent

Размер .torrent файла 61 KB


Размер: 6.05 GB
Хэш (hash) релиза: 0da2a4d137723b0c5ca29cf310589e49d3f51002
Подписка на обновления:

Еще никто не оставлял запись к записи скачать торрент Футурама Futurama . Будь первым!

!Обратная связь