Скачать через торрент СУПЕР-ДУПЕР ПОДЗЕМНОЕ ЛЕТО БИЛЛИ ДИЛЛИ Billy Dilleys Super-Duper Subterranean Summer Фильм бесплатно в хорошем качестве torrent

Скачивайте на UnionPeer.org фильмы через торрент без регистрации. Новинки кино в хорошем качестве через торрент. На UnionPeer.org можно скачать через торрент фильмы 2014 и 2015 годов. Самые новые фильмы.

Скачать торрент СУПЕР-ДУПЕР ПОДЗЕМНОЕ ЛЕТО БИЛЛИ ДИЛЛИ Billy Dilleys Super-Duper Subterranean Summer бесплатно через .torrent фильм мультфильм сериал

Если у вас наблюдаются проблемы со скриншотами, переходом по ссылками, скачиванием торрентов - проблемы в блокировщике рекламы AdBlock. #хорошегоДня!


Статистика раздачи
Размер:  546 MB   |    Зарегистрирован:  2 месяца 14 дней   |    .torrent скачан:  26 раз   |   
Раздают:  1  
   
Загрузка...
 
Автор Сообщение

Galfimbul

avatar Galfimbul


СУПЕР-ДУПЕР ПОДЗЕМНОЕ ЛЕТО БИЛЛИ ДИЛЛИ / Billy Dilley's Super-Duper Subterranean Summer

Страна: США
Жанр: Анимация, Комедия, Семейный, Фантастика
Продолжительность серии: ~ 00:11:00
Год выпуска: 2017
Перевод: Любительский (двухголосый закадровый) R.G. TheAngelOfDeath & SweetySacrifice
Автор Перевода: Анита
Русские субтитры: нет

Режиссёр: Андрю Овертом
Роли озвучивали: Аарон Спрингер, Том Кенни , Кэти Уэйн, Джеймс Арнольд Тейлор ,Сара-Николь Роблес

Описание: Мультсериал рассказывает нам о приключениях Билли Дилли, мальчишки семи лет , который учится в школе и очень любит науку,а также о его лабораторных партнерах Зике и Марше,которые в летние каникулы оказываются в ловушке странного мира, расположенного в ядре Земли.
Так мы с героями мультсериала и отправляемся в след за приключениями!!!

Качество: WEBRip
Формат: MKV
Видео: AVC, 3196 Кбит/сек, 1280 x 720, 23.976 fps
Аудио: AC-3, 192 Кбит/сек, 2 канала, 48,0 КГц [Russian]
Субтитры: отсутствуют
1 - "Lab Friends... Forever?"
2 - "Surviving Billy"
Полное имя : BILLY DILLY 1S\Billy_Dilleys_S01E01E02_720p_Rus.mkvФормат : MatroskaВерсия формата : Version 4 / Version 2Размер файла : 546 МбайтПродолжительность : 22 м.Общий поток : 3456 Кбит/секДата кодирования : UTC 2017-07-06 01:18:49Программа кодирования : mkvmerge v7.2.0 ('On Every Street') 32bit built on Sep 13 2014 15:42:11Библиотека кодирования : libebml v1.3.0 + libmatroska v1.4.1DURATION : 00:22:04.640000000NUMBER_OF_FRAMES : 41395NUMBER_OF_BYTES : 31791360_STATISTICS_WRITING_APP : mkvmerge v7.2.0 ('On Every Street') 32bit built on Sep 13 2014 15:42:11_STATISTICS_WRITING_DATE_UTC : 2017-07-06 01:18:49_STATISTICS_TAGS : BPS DURATION NUMBER_OF_FRAMES NUMBER_OF_BYTES

ВидеоИдентификатор : 1Формат : AVCФормат/Информация : Advanced Video CodecПрофиль формата : High@L3.1Параметр CABAC формата : ДаПараметр ReFrames формата : 2 кадраИдентификатор кодека : V_MPEG4/ISO/AVCПродолжительность : 22 м.Битрейт : 3196 Кбит/секНоминальный битрейт : 3360 Кбит/секШирина : 1280 пикселейВысота : 720 пикселейСоотношение сторон : 16:9Режим частоты кадров : ПостоянныйЧастота кадров : 23,976 кадра/секЧастота кадров в оригинале : 24,000 кадра/секЦветовое пространство : YUVСубдискретизация насыщенности : 4:2:0Битовая глубина : 8 битТип развёртки : ПрогрессивнаяБит/(Пиксели*Кадры) : 0.145Размер потока : 505 Мбайт (92%)Библиотека кодирования : x264 core 148 r2579M 73ae2d1Настройки программы : cabac=1 / ref=2 / deblock=1:0:0 / analyse=0x3:0x113 / me=hex / subme=2 / psy=1 / psy_rd=1.00:0.00 / mixed_ref=0 / me_range=16 / chroma_me=1 / trellis=0 / 8x8dct=1 / cqm=0 / deadzone=21,11 / fast_pskip=1 / chroma_qp_offset=0 / threads=4 / lookahead_threads=1 / sliced_threads=0 / nr=250 / decimate=1 / interlaced=0 / bluray_compat=0 / stitchable=1 / constrained_intra=0 / bframes=0 / weightp=1 / keyint=250 / keyint_min=24 / scenecut=40 / intra_refresh=0 / rc_lookahead=10 / rc=2pass / mbtree=1 / bitrate=3360 / ratetol=1.0 / qcomp=0.60 / qpmin=5 / qpmax=69 / qpstep=4 / cplxblur=20.0 / qblur=0.5 / ip_ratio=1.40 / aq=1:1.00Язык : EnglishDefault : ДаForced : Нет

АудиоИдентификатор : 2Формат : AC-3Формат/Информация : Audio Coding 3Расширение режима : CM (complete main)Параметр Endianness формата : BigИдентификатор кодека : A_AC3Продолжительность : 22 м.Вид битрейта : ПостоянныйБитрейт : 192 Кбит/секКаналы : 2 каналаРасположение каналов : Front: L RЧастота : 48,0 КГцБитовая глубина : 16 битМетод сжатия : С потерямиРазмер потока : 30,3 Мбайт (6%)Заголовок : RussianЯзык : RussianDefault : ДаForced : Нет


Трекер:  [ 06-Июл-2017 04:54 ]

  

Скачать .torrent

Размер .torrent файла 11 KB


Размер: 546 MB
Хэш (hash) релиза: 477cc58acb5ddab277e8b79c3799de81ad560241
Подписка на обновления:

Еще никто не оставлял запись к записи скачать торрент СУПЕР-ДУПЕР ПОДЗЕМНОЕ ЛЕТО БИЛЛИ ДИЛЛИ Billy Dilleys Super-Duper Subterranean Summer . Будь первым!

!Обратная связь