Скачать через торрент Признания Tsurezure Children бесплатно Аниме Все серии на русском torrent

Если у вас наблюдаются проблемы со скриншотами, переходом по ссылками, скачиванием торрентов - проблемы в блокировщике рекламы AdBlock. #хорошегоДня!


Статистика раздачи
Размер:  128 MB   |    Зарегистрирован:  2 месяца 21 день   |    .torrent скачан:  22 раза   |   
Раздают:  1  
   
Загрузка...
 
Автор Сообщение

Galfimbul

avatar Galfimbul


Признания
Tsurezure Children
Tsuredure Children
徒然チルドレン

Страна: Япония
Год выпуска: 2017 г.
Жанр: комедия, романтика, школа
Тип: TV
Продолжительность: 12 эп. по ~13 мин.
Режиссер: Канэко Хираку
Студия: Studio GokumiРусские субтитры от AniPlayОписание: Любовь - чувство многогранное и сложное. Особенно сложно бывает признаться кому-то в любви. Многим не хватает духу сказать заветные слова даже своим родным, не говорим уже о первой любви, когда стыд и неуверенность в себе перевешивают желание быть с объектом своих воздыханий. О любви написано множество книг, снято бесчисленное количество фильмов и спета масса песен. Это аниме покажет нам ещё одну сторону любви, выразив её в отношениях двух учащихся старшей школы.

Харухико Такасэ - стеснительный школьник. Он состоит в футбольном клубе, и несмотря на то, что спортсмены обычно популярны среди девушек, у Такасэ очень низкая самооценка. Настолько, что он даже не может поверить в тот факт, что девушка, в которую он тайно влюблён, приглашает его на свидание. Саки Канда - та самая возлюбленная, она учится с Такасэ в одном классе и записана в теннисный клуб. Впрочем, Такасэ ещё не подозревает, что влюблён он в психопатку, которая готова буквально на всё, чтобы завоевать его сердце. Даже приготовить самодельный шоколад, смешанный с её кровью...Информационные ссылки: AniDB | MyAnimeList | World ArtКачество: HDTVRip
Тип релиза: Без хардсаба
Формат видео: MP4
Наличие линковки: Нет
Релиз/Автор рипа: Ohys-Raws
Видео: x264, 8 bit, 1280x720, ~1241 Kbps, 23.976 fps
Аудио (int): AAC, 48000 Hz, ~186 Kbps, 2 ch
Субтитры (ext): Rus, ASS
<div class="sp-wrap">
<div class="sp-head folded">MediaInfo</div>
<div class="sp-body">

Формат : MPEG-4Профиль формата : Base MediaИдентификатор кодека : isom (isom/avc1)Размер файла : 128 МбайтПродолжительность : 12 м. 30 с.Режим общего битрейта : ПеременныйОбщий поток : 1431 Кбит/секДата кодирования : UTC 2017-07-04 15:39:42Дата пометки : UTC 2017-07-04 15:39:42

ВидеоИдентификатор : 1Формат : AVCФормат/Информация : Advanced Video CodecПрофиль формата : Main@L4.1Параметр CABAC формата : ДаПараметр ReFrames формата : 4 кадраИдентификатор кодека : avc1Идентификатор кодека/Информация : Advanced Video CodingПродолжительность : 12 м. 30 с.Битрейт : 1241 Кбит/секМаксимальный битрейт : 5613 Кбит/секШирина : 1280 пикселейВысота : 720 пикселейСоотношение сторон : 16:9Режим частоты кадров : ПостоянныйЧастота кадров : 23,976 (24000/1001) кадра/секЦветовое пространство : YUVСубдискретизация насыщенности : 4:2:0Битовая глубина : 8 битТип развёртки : ПрогрессивнаяБит/(Пиксели*Кадры) : 0.056Размер потока : 111 Мбайт (87%)Библиотека кодирования : x264 core 152 r2851+58 429492e t_mod_Custom [8-bit@all X86_64]Настройки программы : cabac=1 / ref=3 / deblock=1:0:0 / analyse=0x1:0x111 / me=hex / subme=7 / psy=1 / fade_compensate=0.00 / psy_rd=1.00:0.00 / mixed_ref=1 / me_range=16 / chroma_me=1 / trellis=1 / 8x8dct=0 / cqm=0 / deadzone=21,11 / fast_pskip=1 / chroma_qp_offset=-2 / threads=12 / lookahead_threads=2 / sliced_threads=0 / nr=0 / decimate=1 / interlaced=0 / bluray_compat=0 / constrained_intra=0 / fgo=0 / bframes=3 / b_pyramid=2 / b_adapt=1 / b_bias=0 / direct=1 / weightb=1 / open_gop=0 / weightp=2 / keyint=240 / keyint_min=1 / scenecut=40 / intra_refresh=0 / rc_lookahead=40 / rc=crf / mbtree=1 / crf=20.0000 / qcomp=0.60 / qpmin=0:0:0 / qpmax=69:69:69 / qpstep=4 / ip_ratio=1.40 / aq=1:1.50 / aq-sensitivity=10.00 / aq-factor=1.00:1.00:1.00 / aq2=0 / aq3=0Дата кодирования : UTC 2017-07-04 15:39:42Дата пометки : UTC 2017-07-04 15:39:43Цветовой диапазон : LimitedОсновные цвета : BT.709Характеристики трансфера : BT.709Коэффициенты матрицы : BT.709

АудиоИдентификатор : 2Формат : AACФормат/Информация : Advanced Audio CodecПрофиль формата : LCИдентификатор кодека : 40Продолжительность : 12 м. 30 с.Вид битрейта : ПеременныйБитрейт : 186 Кбит/секМаксимальный битрейт : 241 Кбит/секКаналы : 2 каналаРасположение каналов : Front: L RЧастота : 48,0 КГцЧастота кадров : 46,875 кадров/сек (1024 spf)Метод сжатия : С потерямиРазмер потока : 16,7 Мбайт (13%)Язык : JapaneseДата кодирования : UTC 2017-07-04 15:34:38Дата пометки : UTC 2017-07-04 15:39:43
</div>
</div>
01.


Трекер:  [ 04-Июл-2017 23:01 ]

  

Скачать .torrent

Размер .torrent файла 703 B


Размер: 128 MB
Хэш (hash) релиза: d02e61cde4e16bda4023371e5b40e9ef697e0eca
Подписка на обновления:

Еще никто не оставлял запись к записи скачать торрент Признания Tsurezure Children . Будь первым!

!Обратная связь