Скачать через торрент Звездные войны: Силы судьбы Star Wars Forces of Destiny Фильм бесплатно в хорошем качестве torrent

Скачивайте на UnionPeer.org фильмы через торрент без регистрации. Новинки кино в хорошем качестве через торрент. На UnionPeer.org можно скачать через торрент фильмы 2014 и 2015 годов. Самые новые фильмы.

Скачать торрент Звездные войны: Силы судьбы Star Wars Forces of Destiny бесплатно через .torrent фильм мультфильм сериал

Если у вас наблюдаются проблемы со скриншотами, переходом по ссылками, скачиванием торрентов - проблемы в блокировщике рекламы AdBlock. #хорошегоДня!


Статистика раздачи
Размер:  50 MB   |    Зарегистрирован:  2 месяца 17 дней   |    .torrent скачан:  39 раз   |   
Раздают:  1  
   
Загрузка...
 
Автор Сообщение

Galfimbul

avatar Galfimbul


Звездные войны: Силы судьбы / Star Wars Forces of DestinyПервый сезон
Страна: США
Жанр: Фантастика, мультсериал, приключения
Продолжительность эпизодов: ~2-3 минуты
Год выпуска: 2017
Перевод: Субтитры
Русские субтитры: есть (отдельные)
Переводчик: DarthStapСоздатели: Брэд Рау / Brad Rau, Дэйв Филони / Dave Filoni
Роли озвучивали:
Дейзи Ридли - Рей
Люпита Нионго - Маз Каната
Ванесса Маршалл — Гера Синдулла
Тия Сиркар — Сабин Врен
Эшли Экштейн - Асока тано
Кэтрин Тейбер - Падме Амидала
Фелисити Джонс - Джин Эрсо
Шелби Йонг - Лея Органа
Мэтт Лантер - Люк Скайуокер
Джон Бойега - ФиннОписание: Короткие истории с участием главных героинь саги из разных временных периодов.Качество: WEBRip 1080p
Формат: MKV
Видео: MPEG4 Video (H264), 1920x1080, 23.976fps, ~2370 Kbps
Аудио: English (Английский), AAC, 48000Hz, 2ch, 126kbps
Субтитры: русские (отдельные)
01. Sands of Jakku / Пески Джакку
1
00:00:03,503 --> 00:00:07,674
Наши решения, наши действия,

2
00:00:07,674 --> 00:00:10,469
события - большие и маленькие,

3
00:00:10,469 --> 00:00:13,347
делают из нас силы судьбы.

4
00:00:13,550 --> 00:00:18,040
Звездные войны: Силы судьбы
Пески Джакку

5
00:00:25,234 --> 00:00:28,570
Пока тебя не найдут,
можешь остаться у меня.

6
00:00:37,454 --> 00:00:38,705
Ну же, не отставай.

7
00:00:38,705 --> 00:00:39,748
Стой! Не двигайся!

8
00:00:41,458 --> 00:00:42,876
Это ночной страж.

9
00:00:42,876 --> 00:00:44,461
Питается хламом.

10
00:00:48,006 --> 00:00:49,091
Бежим!

11
00:00:52,177 --> 00:00:53,720
Похоже, он не ел сегодня.

12
00:00:53,720 --> 00:00:55,973
Надо найти что-то и накормить его.

13
00:01:01,270 --> 00:01:03,021
Сюда!

14
00:01:12,447 --> 00:01:15,659
Не останавливайся!
Мы почти дома.

15
00:01:30,048 --> 00:01:32,009
Нет! Стой!

16
00:01:37,097 --> 00:01:38,056
Нет!

17
00:01:56,241 --> 00:01:57,326
Прости!

18
00:02:15,927 --> 00:02:18,805
Вот, ты ведь голодный. Лови.

19
00:02:28,148 --> 00:02:29,691
Мы в безопасности.

20
00:02:31,234 --> 00:02:33,320
Как нашла тебя?

21
00:02:33,320 --> 00:02:34,863
Повезло, наверное.

22
00:02:36,156 --> 00:02:38,367
А вот тебе нет, дружок.

23
00:02:42,000 --> 00:02:48,220
Перевод: DarthStap
General
Unique ID                      : 213480338596057913664508253934530271539 (0xA09AD1526DAAF0EBBB7AA7F9545F1933)
Complete name                  : C:\Forces of Destiny Season 1\1x01 Sands of Jakku.mkv
Format                         : Matroska
Format version                 : Version 4 / Version 2
File size                      : 50.1 MiB
Duration                       : 2 min 48 s
Overall bit rate               : 2 499 kb/s
Encoded date                   : UTC 2017-07-03 22:02:46
Writing application            : mkvmerge v9.8.0 ('Kuglblids') 64bit
Writing library                : libebml v1.3.4 + libmatroska v1.4.5

Video
ID                             : 1
Format                         : AVC
Format/Info                    : Advanced Video Codec
Format profile                 : High@L4
Format settings, CABAC         : Yes
Format settings, ReFrames      : 2 frames
Codec ID                       : V_MPEG4/ISO/AVC
Duration                       : 2 min 48 s
Bit rate                       : 2 372 kb/s
Width                          : 1 920 pixels
Height                         : 1 080 pixels
Display aspect ratio           : 16:9
Frame rate mode                : Constant
Frame rate                     : 23.976 (24000/1001) FPS
Color space                    : YUV
Chroma subsampling             : 4:2:0
Bit depth                      : 8 bits
Scan type                      : Progressive
Bits/(Pixel*Frame)             : 0.048
Stream size                    : 47.5 MiB (95%)
Default                        : Yes
Forced                         : No
Color range                    : Limited
Color primaries                : BT.709
Transfer characteristics       : BT.709
Matrix coefficients            : BT.709

Audio
ID                             : 2
Format                         : AAC
Format/Info                    : Advanced Audio Codec
Format profile                 : LC
Codec ID                       : A_AAC
Duration                       : 2 min 48 s
Bit rate                       : 126 kb/s
Channel(s)                     : 2 channels
Channel positions              : Front: L R
Sampling rate                  : 44.1 kHz
Frame rate                     : 43.066 FPS (1024 spf)
Compression mode               : Lossy
Stream size                    : 2.52 MiB (5%)
Default                        : Yes
Forced                         : No


Трекер:  [ 04-Июл-2017 01:24 ]

  

Скачать .torrent

Размер .torrent файла 16 KB


Размер: 50 MB
Хэш (hash) релиза: c64ae6e434b3b0bf7e4139f64a5374527d928e98
Подписка на обновления:

Еще никто не оставлял запись к записи скачать торрент Звездные войны: Силы судьбы Star Wars Forces of Destiny . Будь первым!

!Обратная связь