Скачать через торрент Судьба: Апокриф Fate бесплатно Аниме Все серии на русском torrent

Если у вас наблюдаются проблемы со скриншотами, переходом по ссылками, скачиванием торрентов - проблемы в блокировщике рекламы AdBlock. #хорошегоДня!


Статистика раздачи
Размер:  351 MB   |    Зарегистрирован:  2 месяца 23 дня   |    .torrent скачан:  18 раз   |   
Раздают:  1  
   
Загрузка...
 
Автор Сообщение

Galfimbul

avatar Galfimbul


Судьба: Апокриф
Fate/Apocrypha

Страна: Япония
Год выпуска: 2017 г.
Жанр: приключения, фэнтези, драма
Тип: TV
Продолжительность: 25 эп. по 25 мин.
Режиссер: Асай Ёсиюки
Студия: A-1 PicturesРусские субтитры от SovetRomantica
Перевод: Sivarius | Редактура: RistrettoОписание: События этого произведения происходят в мире, параллельном мирам аниме "Судьба: Ночь схватки” и "Судьба: Начало”. Вам придётся представить, что события этих аниме так никогда и не произошли. В Третьей войне Святого Грааля дом Айнцберн вызывает Правителя вместо Мстителя. Святой Грааль из города Фуюки попадает в Румынию, чему напрямую способствует семья Иггдмилления, которая и похищает Святой Грааль. Они решают не скрывать сей факт и открыто заявляют, что именно они теперь владельцы Святого Грааля.

Но разве кто-то станет просто так мириться с этим? Если Святой Грааль не у нас, значит его нужно отобрать! Таким образом, город под названием Трифас всколыхнула очередная война. На этот раз противостоят друг друг две фракции: Красная и Чёрная, в каждой из которых по семь Слуг. В Чёрной Фракции состоит собственно семья Иггдмилления, защищающая своё приобретение. Красная Фракция собралась из посланников Ассоциации Магов, они хотят освободить Грааль. Но и сам Святой Грааль решил не оставаться в стороне и призвал собственного Слугу. Чем же закончится очередная заварушка?Информационные ссылки: AniDB | MyAnimeList | World ArtКачество: HDTVRip
Тип релиза: Без хардсаба
Формат видео: MP4
Наличие линковки: Нет
Релиз/Автор рипа: Ohys-Raws
Видео: x264, 8 bit, 1280x720, ~1813 Kbps, 23.976 fps
Аудио (int): AAC, 48000 Hz, ~215 Kbps, 2 ch
Субтитры (ext): Rus, ASS
<div class="sp-wrap">
<div class="sp-head folded">MediaInfo</div>
<div class="sp-body">

Формат : MPEG-4Профиль формата : Base MediaИдентификатор кодека : isom (isom/iso2/avc1/mp41)Размер файла : 350 МбайтПродолжительность : 24 м. 0 с.Общий поток : 2036 Кбит/секДата кодирования : UTC 2017-07-01 15:41:27Дата пометки : UTC 2017-07-01 15:41:27Программа кодирования : ShanaEncoder

ВидеоИдентификатор : 1Формат : AVCФормат/Информация : Advanced Video CodecПрофиль формата : Main@L4.1Параметр CABAC формата : ДаПараметр ReFrames формата : 4 кадраИдентификатор кодека : avc1Идентификатор кодека/Информация : Advanced Video CodingПродолжительность : 24 м. 0 с.Битрейт : 1813 Кбит/секШирина : 1280 пикселейВысота : 720 пикселейСоотношение сторон : 16:9Режим частоты кадров : ПеременныйЧастота кадров : 26,347 кадров/секМинимальная частота кадров : 10,204 кадров/секМаксимальная частота кадров : 62,500 кадра/секЧастота кадров в оригинале : 23,976 (24000/1001) кадра/секЦветовое пространство : YUVСубдискретизация насыщенности : 4:2:0Битовая глубина : 8 битТип развёртки : ПрогрессивнаяБит/(Пиксели*Кадры) : 0.075Размер потока : 311 Мбайт (89%)Библиотека кодирования : x264 core 150 r2833+58 090e24f t_mod_Custom [8-bit@all X86_64]Настройки программы : cabac=1 / ref=3 / deblock=1:0:0 / analyse=0x1:0x111 / me=hex / subme=7 / psy=1 / fade_compensate=0.00 / psy_rd=1.00:0.00 / mixed_ref=1 / me_range=16 / chroma_me=1 / trellis=1 / 8x8dct=0 / cqm=0 / deadzone=21,11 / fast_pskip=1 / chroma_qp_offset=-2 / threads=12 / lookahead_threads=2 / sliced_threads=0 / nr=0 / decimate=1 / interlaced=0 / bluray_compat=0 / constrained_intra=0 / fgo=0 / bframes=3 / b_pyramid=2 / b_adapt=1 / b_bias=0 / direct=1 / weightb=1 / open_gop=0 / weightp=2 / keyint=240 / keyint_min=1 / scenecut=40 / intra_refresh=0 / rc_lookahead=40 / rc=crf / mbtree=1 / crf=20.0000 / qcomp=0.60 / qpmin=0:0:0 / qpmax=69:69:69 / qpstep=4 / ip_ratio=1.40 / aq=1:1.50 / aq-sensitivity=10.00 / aq-factor=1.00:1.00:1.00 / aq2=0 / aq3=0Дата кодирования : UTC 2017-07-01 15:41:27Дата пометки : UTC 2017-07-01 15:41:27Цветовой диапазон : LimitedОсновные цвета : BT.709Характеристики трансфера : BT.709Коэффициенты матрицы : BT.709

АудиоИдентификатор : 2Формат : AACФормат/Информация : Advanced Audio CodecПрофиль формата : LCИдентификатор кодека : 40Продолжительность : 24 м. 0 с.Вид битрейта : ПостоянныйБитрейт : 215 Кбит/секКаналы : 2 каналаРасположение каналов : Front: L RЧастота : 48,0 КГцЧастота кадров : 46,875 кадров/сек (1024 spf)Метод сжатия : С потерямиРазмер потока : 36,9 Мбайт (11%)Default : ДаAlternateGroup/String : 1Дата кодирования : UTC 2017-07-01 15:41:27Дата пометки : UTC 2017-07-01 15:41:27
</div>
</div>
01.


Трекер:  [ 03-Июл-2017 11:30 ]

  

Скачать .torrent

Размер .torrent файла 1 KB


Размер: 351 MB
Хэш (hash) релиза: b5929c94694fb2f7522c1c552757690817b42a7e
Подписка на обновления:

Торренты, похожие на Судьба: Апокриф Fate скачать торрент

Форум Название Автор Размер S L Добавлен
Аниме | Rips ·· Судьба/Апокриф / Fate/Apocrypha [TV] [01 из 25] [Без хардсаба] [RUS(ext), JAP, SUB] [2017, Приключения, Фэнтези, Экшен, Исторический, Сверхъестественное, Драма, HDTVRip] [720p] Galfimbul 523929557500 MB 0 0 1499131932

04:32

4-Июл-17

Еще никто не оставлял запись к записи скачать торрент Судьба: Апокриф Fate . Будь первым!

!Обратная связь