Скачать через торрент Драконы: Гонка на Грани Dragons: Race to the Edge Фильм бесплатно в хорошем качестве torrent

Скачивайте на UnionPeer.org фильмы через торрент без регистрации. Новинки кино в хорошем качестве через торрент. На UnionPeer.org можно скачать через торрент фильмы 2014 и 2015 годов. Самые новые фильмы.

Скачать торрент Драконы: Гонка на Грани Dragons: Race to the Edge бесплатно через .torrent фильм мультфильм сериал

Если у вас наблюдаются проблемы со скриншотами, переходом по ссылками, скачиванием торрентов - проблемы в блокировщике рекламы AdBlock. #хорошегоДня!


Статистика раздачи
Размер:  16.63 GB   |    Зарегистрирован:  4 месяца 18 дней   |    .torrent скачан:  29 раз   |   
Раздают:  1  
   
Загрузка...
 
Автор Сообщение

Galfimbul

avatar Galfimbul


Драконы: Гонка на Грани / Dragons: Race to the Edge
Страна: США
Жанр: Фэнтези, приключения, комедия, семейный
Продолжительность: ~23 минуты
Год выпуска: 2015
Перевод: Любительский (двухголосый закадровый) [Saint Sound]
Русские субтитры: нет

Режиссёр: Энтони Белл / Anthony Bell, Джон Санфорд / John Sanford, Джон Энг / John Eng
Роли озвучивали: Джей Барушель (Иккинг / Hiccup), Америка Феррера (Астрид / Astrid), Кристофер Минц-Плассе (Рыбьеног / Fishlegs), ТиДжей Миллер (Задирака / Tuffnut), Нолан Норт (Стоик / Stoick), Крис Эджерли (Плевака / Gobber), Зак Перлман (Сморкала / Snotlout), Джули Маркус (Забияка / Ruffnut), Тим Конуэй (Шлак / Mulch), Томас Ф. Уилсон (Ведрон / Bucket), Стивен Рут (Гнилец / Mildew), Марк Хэмилл (Элвин Вероломный / Alvin the Treacherous), Пол Ругг (Дикарь / Savage), Дэвид Фаустино (Дагур Остервенелый / Dagur the Deranged), Мэй Уитман (Хэдер / Heather), Майкл Голдстром (Торговец Йохан / Trader Johann), Дэвид Теннант (Spitelout Jorgenson)

Описание: Викинги Олуха и их бывшие враги — драконы — теперь живут вместе в мире и покое, однако такое соседство всё равно не так уж гармонично, как хотелось бы. Несмотря на мирное сосуществование, драконы всё-таки остаются существами непредсказуемыми и опасными, реагирующими на многие вещи совершенно неожиданно. Иккинг решается открыть Школу для дрессировки драконов на Олухе, чтобы помочь драконам влиться в общество людей.
Сериал начинается после событий фильма "Как приручить дракона", и повествует о дальнейших приключениях Иккинга и его верного дракона Беззубика, а также остальных ребят, у каждого из которых теперь есть свой дракон. Во время тренировок друзьям удалось установить особые дружеские связи со своими драконами, изучив особенности и силу каждого из них. Судьба занесёт наших героев в самые разные места, где они откроют совершенно новых драконов, найдут новые приключения и будут сражаться с новыми злодеями, познавая мир, о котором даже и не подозревали.
Сериал служит мостом, связывающим фильм "Как приручить дракона" с его продолжением "Как приручить дракона 2", создатели которого тесно работают с создателями сериала. Вследствие всего этого в самом "Как приручить дракона 2" есть отсылки и сюрпризы, которые поймут только те, кто смотрел сериал.
1) Драконий Глаз Наблюдателя (часть I)
2) Драконий Глаз Наблюдателя (часть II)
3) Почти Гармония
4) Когда Темнеет
5) Важная Птица в Олухе
6) Густав уйди!... Ушёл?
7) Господство Огнечервей
8) Круши его!
9) Землетрясение, Погром и Перекат
10) Должны ли Драконы Путешествовать (часть I)
11) Должны ли Драконы Путешествовать (часть II)
12) Скорожал
13) Полный Ужас
14) Отряд Астрид
15) Ночь охотников(часть I)
16) Ночь охотников(часть II)
17) Восход кровавой луны
18) Секира Сморкалы
19) Кое-что о пристеголове
20) Побег из снежного плена
21) Остров Несчастий(1 часть)
22) Остров Несчастий(2 часть)
23) Шок и трепет
24) Время Кривета
25) Викинги и разбойники(1 часть)
Качество: WEBRip 720p
Формат: MKV
Видео: MPEG-4 AVC, 1280x720, 23.976 fps, ~ 2884 kbps
Аудио 1: AC-3, 48 kHz, 6 ch, 640 kbps Original
Аудио 2: AC-3, 48 kHz, 2 ch, 192 kbps Русский [Saint Sound]

Семпл
ОбщееУникальный идентификатор : 202368803242219179850104160619805198407 (0x983ED05506C1FE809EFC5F0765FAC847)Полное имя : E:\Драконы Гонки на Грани\1 серия.mkvФормат : MatroskaВерсия формата : Version 4 / Version 2Размер файла : 618 МбайтПродолжительность : 22 м.Общий поток : 3791 Кбит/секДата кодирования : UTC 2015-08-19 10:18:00Программа кодирования : mkvmerge v6.1.0 ('Old Devil') built on Mar 2 2013 14:32:37Библиотека кодирования : libebml v1.3.0 + libmatroska v1.4.0

ВидеоИдентификатор : 1Формат : AVCФормат/Информация : Advanced Video CodecПрофиль формата : High@L4.1Параметр CABAC формата : ДаПараметр ReFrames формата : 9 кадровИдентификатор кодека : V_MPEG4/ISO/AVCПродолжительность : 22 м.Битрейт : 2884 Кбит/секШирина : 1280 пикселейВысота : 720 пикселейСоотношение сторон : 16:9Режим частоты кадров : ПостоянныйЧастота кадров : 23,976 кадра/секЦветовое пространство : YUVСубдискретизация насыщенности : 4:2:0Битовая глубина : 8 битТип развёртки : ПрогрессивнаяБит/(Пиксели*Кадры) : 0.130Размер потока : 470 Мбайт (76%)Библиотека кодирования : x264 core 144 r2525 40bb568Настройки программы : cabac=1 / ref=9 / deblock=1:-3:-3 / analyse=0x3:0x133 / me=umh / subme=10 / psy=1 / psy_rd=1.00:0.00 / mixed_ref=1 / me_range=48 / chroma_me=1 / trellis=2 / 8x8dct=1 / cqm=0 / deadzone=21,11 / fast_pskip=0 / chroma_qp_offset=-2 / threads=12 / lookahead_threads=2 / sliced_threads=0 / nr=0 / decimate=0 / interlaced=0 / bluray_compat=0 / constrained_intra=0 / bframes=8 / b_pyramid=2 / b_adapt=2 / b_bias=0 / direct=3 / weightb=1 / open_gop=0 / weightp=2 / keyint=250 / keyint_min=24 / scenecut=40 / intra_refresh=0 / rc_lookahead=150 / rc=crf / mbtree=1 / crf=16.0 / qcomp=0.60 / qpmin=0 / qpmax=69 / qpstep=4 / ip_ratio=1.40 / aq=1:0.75Язык : EnglishDefault : ДаForced : Нет

Аудио #1Идентификатор : 2Формат : AC-3Формат/Информация : Audio Coding 3Расширение режима : CM (complete main)Параметр Endianness формата : BigИдентификатор кодека : A_AC3Продолжительность : 22 м.Вид битрейта : ПостоянныйБитрейт : 640 Кбит/секКаналы : 6 каналовРасположение каналов : Front: L C R, Side: L R, LFEЧастота : 48,0 КГцБитовая глубина : 16 битМетод сжатия : С потерямиРазмер потока : 104 Мбайт (17%)Язык : EnglishDefault : НетForced : Нет

Аудио #2Идентификатор : 3Формат : AC-3Формат/Информация : Audio Coding 3Расширение режима : CM (complete main)Параметр Endianness формата : BigИдентификатор кодека : A_AC3Продолжительность : 22 м.Вид битрейта : ПостоянныйБитрейт : 192 Кбит/секКаналы : 2 каналаРасположение каналов : Front: L RЧастота : 48,0 КГцБитовая глубина : 16 битМетод сжатия : С потерямиРазмер потока : 31,3 Мбайт (5%)Язык : RussianDefault : ДаForced : Да
при каждом добавлении создаётся новый торрент. Чтобы начать докачку новой серии, пользователям необходимо сделать следующее:
(1) остановить скачивание,
(2) удалить старый торрент у себя из клиента (старые серии удалять не надо),
(3) скачать новый торрент и запустить его у себя в клиенте вместо старого, при этом указать клиенту путь в старую папку куда и должно происходить скачивание новых серий.

Ваш клиент при этом должен произвести хеширование (проверку) старой папки (если не производит сам - помогите ему сделать это), и будет докачивать только те серии которых у вас ещё нет. Старые серии при этом не удаляются, а продолжают раздаваться!

Eсли вы уже удалили старые серии, то предотвратить повторную закачку старых серий можно, отжав галочку в соответствующих местах при запуске нового торрента. По возможности, желательно не удалять старые серии как можно дольше чтобы релизёр не столько продолжал раздавать старые серии, а смог сконцентрироваться на новых.


Трекер:  [ 02-Июл-2017 14:54 ]

  

Скачать .torrent

Размер .torrent файла 43 KB


Размер: 16.63 GB
Хэш (hash) релиза: 8ec5fb6f80e3d0e4074daf6c9933c0d68a1fa5ae
Подписка на обновления:

Еще никто не оставлял запись к записи скачать торрент Драконы: Гонка на Грани Dragons: Race to the Edge . Будь первым!

!Обратная связь