Скачать через торрент Американский папаша! Американский папа! Фильм бесплатно в хорошем качестве torrent

Скачивайте на UnionPeer.org фильмы через торрент без регистрации. Новинки кино в хорошем качестве через торрент. На UnionPeer.org можно скачать через торрент фильмы 2014 и 2015 годов. Самые новые фильмы.

Скачать торрент Американский папаша! Американский папа! бесплатно через .torrent фильм мультфильм сериал

Если у вас наблюдаются проблемы со скриншотами, переходом по ссылками, скачиванием торрентов - проблемы в блокировщике рекламы AdBlock. #хорошегоДня!


Статистика раздачи
Размер:  14.8 GB   |    Зарегистрирован:  4 месяца 18 дней   |    .torrent скачан:  35 раз   |   
Раздают:  1  
   
Загрузка...
 
Автор Сообщение

Galfimbul

avatar Galfimbul


Американский папаша!
American Dad!Сезон 11Серии: 1-22 из 22
Страна: США
Производство: 20th Century Fox Television
Жанр: Мультфильм, фэнтези, комедия, приключения
Продолжительность: 00:21:09
Года выпуска: 2016
Перевод:

Профессиональный (многоголосый закадровый) | Студия Jaskier
Оригинальная звуковая дорожка (English)

Русские субтитры: нет
Английские субтитры: естьРежиссёр: Сет МакФарлейн / Seth MacFarlaneСюжет мультсериала разворачивается вокруг семьи Смитов. Папа Стэн — агент ЦРУ и республиканец до мозга костей, силен телом, но глуп разумом. Имеет мужественнейший подбородок и всегда выглаженный костюм. Франсин — жена Стэна и мать детей. Типичная домохозяйка. В меру мудрая, в меру глупая. К тому же, не знает своих настоящих родителей. Сын — Стив. У него есть определенные проблемы в общении с противоположным полом (девушки с ним общаются порой, только под дулом табельного оружия отца). Дочь Хэйли — отчаянная либералка, имеет «хиппарские» черты, но хиппи не является, хоть и защищает природу, и принимает легкие наркотики. Семпл | Все раздачи мультсериалаКачество: WEB-DL 720p
Формат: MKV
Видео: 1280x720 (16:9) at 23.976 fps, High@L3.1, ~4000 kbps avg, ~0.178bpp
Аудио:

Russian: 48 kHz, AC3 Dolby Digital, 2.0 ch, ~192 kbps | Студия Jaskier [без рекламы]
English: 48 kHz, AC3 Dolby Digital, 5.1 ch, ~384 kbps

Субтитры: English (*.srt)
GeneralUnique ID : 204420148545153457905459273489307373754 (0x99C9E376D3F0F246AD5BE6676E0F90BA)Complete name : \American Dad - Season 11\American.Dad.S11E13.Widow's.Pique.720p.WEB-DL-Jaskier.mkvFormat : MatroskaFormat version : Version 4 / Version 2File size : 679 MiBDuration : 21 min 9 sOverall bit rate : 4 488 kb/sMovie name : Widow's PiqueEncoded date : UTC 2017-07-01 22:36:15Writing application : mkvmerge v13.0.0 ('The Juggler') 64bitWriting library : libebml v1.3.4 + libmatroska v1.4.5Attachments : Poster.jpg

VideoID : 1Format : AVCFormat/Info : Advanced Video CodecFormat profile : High@L3.1Format settings, CABAC : NoFormat settings, ReFrames : 2 framesCodec ID : V_MPEG4/ISO/AVCDuration : 21 min 9 sBit rate : 3 909 kb/sWidth : 1 280 pixelsHeight : 718 pixelsDisplay aspect ratio : 16:9Frame rate mode : ConstantFrame rate : 23.976 (24000/1001) FPSColor space : YUVChroma subsampling : 4:2:0Bit depth : 8 bitsScan type : ProgressiveBits/(Pixel*Frame) : 0.177Stream size : 592 MiB (87%)Title : Widow's PiqueLanguage : EnglishDefault : YesForced : NoColor range : LimitedColor primaries : BT.709Transfer characteristics : BT.709Matrix coefficients : BT.709

Audio #1ID : 2Format : AC-3Format/Info : Audio Coding 3Mode extension : CM (complete main)Format settings, Endianness : BigCodec ID : A_AC3Duration : 21 min 9 sBit rate mode : ConstantBit rate : 192 kb/sChannel(s) : 2 channelsChannel positions : Front: L RSampling rate : 48.0 kHzFrame rate : 31.250 FPS (1536 spf)Bit depth : 16 bitsCompression mode : LossyStream size : 29.1 MiB (4%)Title : MVO (Jaskier)Language : RussianDefault : YesForced : No

Audio #2ID : 3Format : AC-3Format/Info : Audio Coding 3Mode extension : CM (complete main)Format settings, Endianness : BigCodec ID : A_AC3Duration : 21 min 9 sBit rate mode : ConstantBit rate : 384 kb/sChannel(s) : 6 channelsChannel positions : Front: L C R, Side: L R, LFESampling rate : 48.0 kHzFrame rate : 31.250 FPS (1536 spf)Bit depth : 16 bitsCompression mode : LossyStream size : 58.1 MiB (9%)Language : EnglishDefault : NoForced : No

TextID : 4Format : UTF-8Codec ID : S_TEXT/UTF8Codec ID/Info : UTF-8 Plain TextDuration : 21 min 1 sBit rate : 134 b/sCount of elements : 515Stream size : 20.7 KiB (0%)Language : EnglishDefault : NoForced : No
(Полноразмерные скриншоты открываются кликом по миниатюре)
#191 Корни / Roots
#192 Водная жизнь со Стивом Смитом / The Life Aquatic with Steve Smith
#193 У Хейли переворот детства / Hayley Smith, Seal Team Six
#194 А.Н.Б., или ищейкам вход воспрещен / N.S.A. (No Snoops Allowed)
#195 Стен Смит как Стенни Юта как в Киану Ривз / Stan Smith as Keanu Reeves as Stanny Utah in Point Breakers
#196 Чмоки-чмоки на камеру / Kiss Kiss Cam Cam
#197 Дьявол носит нагрудный значок / The Devil Wears a Lapel Pin
#198 Выстэнить и добиться / Stan-Dan Deliver
#199 Телефрансин / Anchorfran
#200 Две сотни / The Two Hundred
#201 Невовлеченные / The Unincludeds
#202 Жена дантиста / The Dentist's Wife
#203 Вдовья обида / Widow's Pique
#204 Туристический Совет Нова Центавраграда предсталяет: Американский папаша / The Nova Centauris-burgh Board of Tourism Presents: American Dad
#205 Песнь о тяжелой промышленности / Daesong Heavy Industries
#206 Песнь о тяжелой промышленности II: Возвращение к невинности / Daesong Heavy Industries II: Return to Innocence
#207 Злостный перекрестный: Балада Билли Иисусворта / Criss-Cross Applesauce: The Ballad of Billy Jesusworth
#208 Борьба за шахту / Mine Struggle
#209 Гарфилд и друзья / Garfield and Friends
#210 Одаренный свободой / Gifted Me Liberty
#211 Родня / Next of Pin
#212 Стандартное отклонение / Standard Deviation


Трекер:  [ 02-Июл-2017 02:24 ]

  

Скачать .torrent

Размер .torrent файла 39 KB


Размер: 14.8 GB
Хэш (hash) релиза: a95afa69d1ec4c48e6d1a9e2c4775c69ccc21cdd
Подписка на обновления:

Еще никто не оставлял запись к записи скачать торрент Американский папаша! Американский папа! . Будь первым!

!Обратная связь