Скачать через торрент [VIDEO] Красавица и чудовище Beauty and the Beast бесплатно русская версия torrent активатор

Если у вас наблюдаются проблемы со скриншотами, переходом по ссылками, скачиванием торрентов - проблемы в блокировщике рекламы AdBlock. #хорошегоДня!


Статистика раздачи
Размер:  571 MB   |    Зарегистрирован:  1 месяц 22 дня   |    .torrent скачан:  13 раз   |   
Раздают:  1  
   
Загрузка...
 
Автор Сообщение

Galfimbul

avatar Galfimbul


Красавица и чудовище / Beauty and the Beast«Вы наш гость»
Год выпуска: 2017
Страна: США / Walt Disney Pictures
Жанр: мюзикл, фэнтези, мелодрама, семейный
Продолжительность: 02:09:16
Перевод: Русский Профессиональный (полное дублирование) BD EUR |Лицензия
Субтитры: нетРежиссер: Билл Кондон / Bill CondonВ ролях: Эмма Уотсон, Дэн Стивенс, Люк Эванс, Джош Гад, Кевин Клайн, Хэтти Морахэн, Хейдн Гвин, Джерард Хоран, Рэй Фиарон, Юэн МакГрегор и другие .Описание: Обозлённая Волшебница превратила принца Адама в отвратительное чудовище за то, что тот был злым, самовлюблённым и грубым. Чтобы снять чары с себя и слуг своего замка, ему необходимо научиться быть добрым, любить и быть любимым. Произойти это должно до того, как с розы, подаренной Волшебницей, упадёт последний лепесток. В далёкой деревушке живёт красивая девушка по имени Белль. Однажды её отец Морис отправляется на ярмарку, но по дороге сбивается с пути. Оказавшись в заколдованном замке, он становится пленником Чудовища. Белль спешит отцу на помощь. Релиз группы Качество: HDRip / рип с BDRip 1080p
Формат: MP4
Видео кодек: XviD
Аудио кодек: AAC
Видео: 480х200 AR:2.40 485 kbps 23.976 fps
Аудио: [Russian] 2ch 48 kHz 128 kbps - Профессиональный (полное дублирование) BD EUR |Лицензия
GeneralComplete name : D:\Torrents\Beauty and the Beast.2017.HDRip.XviD.480x.rip by Frost O.S.mp4Format : MPEG-4Format profile : Base MediaCodec ID : isom (isom)File size : 571 MiBDuration : 2 h 9 minOverall bit rate mode : VariableOverall bit rate : 617 kb/sEncoded date : UTC 2017-07-01 17:32:47Tagged date : UTC 2017-07-01 17:32:47Writing application : My MP4Box GUI 0.6.0.6

VideoID : 1Format : MPEG-4 VisualFormat profile : Advanced Simple@L5Format settings, BVOP : YesFormat settings, QPel : YesFormat settings, GMC : No warppointsFormat settings, Matrix : CustomCodec ID : 20Duration : 2 h 9 minBit rate mode : VariableBit rate : 485 kb/sMaximum bit rate : 4 635 kb/sWidth : 480 pixelsHeight : 200 pixelsDisplay aspect ratio : 2.40:1Frame rate mode : ConstantFrame rate : 23.976 (24000/1001) FPSOriginal frame rate : 23.976 (23976/1000) FPSColor space : YUVChroma subsampling : 4:2:0Bit depth : 8 bitsScan type : ProgressiveCompression mode : LossyBits/(Pixel*Frame) : 0.211Stream size : 449 MiB (79%)Title : Beauty and the Beast.2017.HDRip.XviD.480x.rip by Frost O.S.mp4Writing library : XviD 1.2.1 (UTC 2008-12-04)Encoded date : UTC 2017-07-01 17:32:47Tagged date : UTC 2017-07-01 17:33:00

AudioID : 2Format : AACFormat/Info : Advanced Audio CodecFormat profile : LCCodec ID : 40Duration : 2 h 9 minBit rate mode : VariableBit rate : 128 kb/sMaximum bit rate : 138 kb/sChannel(s) : 2 channelsChannel positions : Front: L RSampling rate : 48.0 kHzFrame rate : 46.875 FPS (1024 spf)Compression mode : LossyStream size : 118 MiB (21%)Title : Russian / Dub, BD EUREncoded date : UTC 2017-07-01 17:32:53Tagged date : UTC 2017-07-01 17:33:00


Трекер:  [ 01-Июл-2017 21:12 ]

  

Скачать .torrent

Размер .torrent файла 11 KB


Размер: 571 MB
Хэш (hash) релиза: fd4e8a1515ac8a53c3fb2b61ad40856344087238

Еще никто не оставлял запись к записи скачать торрент [VIDEO] Красавица и чудовище Beauty and the Beast . Будь первым!

!Обратная связь