Скачать через торрент музыку Шоу. Американский Последний герой 26 Острова Карамоан Survivor 26 Caramoan бесплатно без регистрации torrent

Если у вас наблюдаются проблемы со скриншотами, переходом по ссылками, скачиванием торрентов - проблемы в блокировщике рекламы AdBlock. #хорошегоДня!


Статистика раздачи
Размер:  280 MB   |    Зарегистрирован:  2 месяца 20 дней   |    .torrent скачан:  19 раз   |   
Раздают:  1  
   
Загрузка...
 
Автор Сообщение

Galfimbul

avatar Galfimbul


Шоу. Американский Последний герой 26 Острова Карамоан / Survivor 26 Caramoan

Название альбома: Survivor Season 26 Caramoan - The Album
Жанр: Score
Композитор: Russ Landau
Год выпуска диска: 2013
Дата показа шоу: 13 февраля 2013 г. - 12 мая 2013 г.

Страна-производитель диска: США
Издатель (лейбл): Ancient Voices
Номер по каталогу: не нашел

Аудиокодек: FLAC (*.flac)
Тип рипа: tracks+.cue
Битрейт аудио: lossless

Продолжительность: 0:54:32

Источник: what.cd
Наличие сканов в содержимом раздачи: нет

Доп. информация: score из 26 сезона американского реалити-шоу Survivor Caramoan
01. Glorious Warriors
02. Ancient Voices 26 Caramoan
03. Redemption AV
04. Into the Unknown
05. Bondage Challenge
06. Ah Baba
07. AV Gods Soldiers
08. Beyond Horizon
09. El Phant
10. Mr Sneaky
11. Dark Layer
12. Doofus
13. Nailbiter
14. Secrets Abound
15. The Quest AV
16. Grand Canyon
17. Guilty as Sin
18. Sweet Melancholy
19. Huge Riser Challenge
20. Real Heroes
21. Super Drama
22. Into the Deep
23. Nature Calm
24. Nnnnn
25. Odd and Sneaky
26. Suspence Challenge
27. Pleasant Day
28. Sadness
29. To the Last Breath
30. Somber Moment
31. AV26 Big Promo
32. AV26 Dub Step
Exact Audio Copy V1.1 from 23. June 2015

EAC extraction logfile from 27. May 2016, 21:35

Russ Landau / Survivor: Caramoan

Used drive : ASUS DRW-24B1ST c Adapter: 1 ID: 0

Read mode : SecureUtilize accurate stream : YesDefeat audio cache : YesMake use of C2 pointers : No

Read offset correction : 6Overread into Lead-In and Lead-Out : NoFill up missing offset samples with silence : YesDelete leading and trailing silent blocks : NoNull samples used in CRC calculations : YesUsed interface : Native Win32 interface for Win NT & 2000Gap handling : Appended to previous track

Used output format : User Defined EncoderSelected bitrate : 128 kBit/sQuality : HighAdd ID3 tag : NoCommand line compressor : D:\Dropbox\Applications\Exact Audio Copy\flac.exeAdditional command line options : -8 -e -V -T "ARTIST=%artist%" -T "TITLE=%title%" -T "ALBUM=%albumtitle%" -T "DATE=%year%" -T "TRACKNUMBER=%tracknr%" -T "GENRE=%genre%" -T "PERFORMER=%albuminterpret%" -T "COMPOSER=%composer%" %haslyrics%--tag-from-file=LYRICS="%lyricsfile%"%haslyrics% -T "ALBUMARTIST=%albumartist%" -T "DISCNUMBER=%cdnumber%" -T "TOTALDISCS=%totalcds%" -T "TOTALTRACKS=%numtracks%" -T "COMMENT=%comment%" %source% -o %dest%

TOC of the extracted CD

Track | Start | Length | Start sector | End sector --------------------------------------------------------- 1 | 0:00.00 | 1:20.13 | 0 | 6012 2 | 1:20.13 | 1:08.17 | 6013 | 11129 3 | 2:28.30 | 3:24.56 | 11130 | 26485 4 | 5:53.11 | 1:44.50 | 26486 | 34335 5 | 7:37.61 | 1:05.44 | 34336 | 39254 6 | 8:43.30 | 0:46.30 | 39255 | 42734 7 | 9:29.60 | 3:03.17 | 42735 | 56476 8 | 12:33.02 | 1:46.30 | 56477 | 64456 9 | 14:19.32 | 1:26.11 | 64457 | 70917 10 | 15:45.43 | 1:35.25 | 70918 | 78067 11 | 17:20.68 | 1:57.56 | 78068 | 86898 12 | 19:18.49 | 0:57.66 | 86899 | 91239 13 | 20:16.40 | 1:19.21 | 91240 | 97185 14 | 21:35.61 | 1:37.25 | 97186 | 104485 15 | 23:13.11 | 3:08.13 | 104486 | 118598 16 | 26:21.24 | 1:22.21 | 118599 | 124769 17 | 27:43.45 | 1:42.50 | 124770 | 132469 18 | 29:26.20 | 1:50.61 | 132470 | 140780 19 | 31:17.06 | 1:10.70 | 140781 | 146100 20 | 32:28.01 | 2:06.40 | 146101 | 155590 21 | 34:34.41 | 1:59.18 | 155591 | 164533 22 | 36:33.59 | 1:56.13 | 164534 | 173246 23 | 38:29.72 | 1:48.64 | 173247 | 181410 24 | 40:18.61 | 0:54.38 | 181411 | 185498 25 | 41:13.24 | 1:36.35 | 185499 | 192733 26 | 42:49.59 | 1:18.63 | 192734 | 198646 27 | 44:08.47 | 1:43.41 | 198647 | 206412 28 | 45:52.13 | 1:51.43 | 206413 | 214780 29 | 47:43.56 | 1:33.00 | 214781 | 221755 30 | 49:16.56 | 1:41.40 | 221756 | 229370 31 | 50:58.21 | 1:12.26 | 229371 | 234796 32 | 52:10.47 | 2:22.18 | 234797 | 245464

Track 1

Filename D:\Uploads\Russ Landau - 2013 - Survivor Caramoan [FLAC]\01 - Glorious Warriors.wav

Pre-gap length 0:00:02.00

Peak level 98.8 % Extraction speed 1.5 X Track quality 100.0 % Test CRC F6FDDB62 Copy CRC F6FDDB62 Track not present in AccurateRip database Copy OK

Track 2

Filename D:\Uploads\Russ Landau - 2013 - Survivor Caramoan [FLAC]\02 - Ancient Voices 26 Caramoan.wav

Peak level 100.0 % Extraction speed 1.5 X Track quality 100.0 % Test CRC 5BB1BF55 Copy CRC 5BB1BF55 Track not present in AccurateRip database Copy OK

Track 3

Filename D:\Uploads\Russ Landau - 2013 - Survivor Caramoan [FLAC]\03 - Redemption AV.wav

Peak level 98.9 % Extraction speed 2.1 X Track quality 100.0 % Test CRC FB5E38C3 Copy CRC FB5E38C3 Track not present in AccurateRip database Copy OK

Track 4

Filename D:\Uploads\Russ Landau - 2013 - Survivor Caramoan [FLAC]\04 - Into the Unknown.wav

Peak level 98.8 % Extraction speed 1.9 X Track quality 100.0 % Test CRC EC9DFB1B Copy CRC EC9DFB1B Track not present in AccurateRip database Copy OK

Track 5

Filename D:\Uploads\Russ Landau - 2013 - Survivor Caramoan [FLAC]\05 - Bondage Challenge.wav

Peak level 100.0 % Extraction speed 1.7 X Track quality 100.0 % Test CRC E110D07F Copy CRC E110D07F Track not present in AccurateRip database Copy OK

Track 6

Filename D:\Uploads\Russ Landau - 2013 - Survivor Caramoan [FLAC]\06 - Ah Baba.wav

Peak level 100.0 % Extraction speed 1.5 X Track quality 100.0 % Test CRC 0893B026 Copy CRC 0893B026 Track not present in AccurateRip database Copy OK

Track 7

Filename D:\Uploads\Russ Landau - 2013 - Survivor Caramoan [FLAC]\07 - AV Gods Soldiers.wav

Peak level 98.7 % Extraction speed 1.6 X Track quality 99.9 % Test CRC 311A113F Copy CRC 311A113F Track not present in AccurateRip database Copy OK

Track 8

Filename D:\Uploads\Russ Landau - 2013 - Survivor Caramoan [FLAC]\08 - Beyond Horizon.wav

Peak level 98.7 % Extraction speed 2.2 X Track quality 100.0 % Test CRC 9E783978 Copy CRC 9E783978 Track not present in AccurateRip database Copy OK

Track 9

Filename D:\Uploads\Russ Landau - 2013 - Survivor Caramoan [FLAC]\09 - El Phant.wav

Peak level 98.8 % Extraction speed 2.1 X Track quality 100.0 % Test CRC 466F7C2B Copy CRC 466F7C2B Track not present in AccurateRip database Copy OK

Track 10

Filename D:\Uploads\Russ Landau - 2013 - Survivor Caramoan [FLAC]\10 - Mr Sneaky.wav

Peak level 99.4 % Extraction speed 2.2 X Track quality 100.0 % Test CRC 7C43B97E Copy CRC 7C43B97E Track not present in AccurateRip database Copy OK

Track 11

Filename D:\Uploads\Russ Landau - 2013 - Survivor Caramoan [FLAC]\11 - Dark Layer.wav

Peak level 98.6 % Extraction speed 2.4 X Track quality 100.0 % Test CRC 21B0998B Copy CRC 21B0998B Track not present in AccurateRip database Copy OK

Track 12

Filename D:\Uploads\Russ Landau - 2013 - Survivor Caramoan [FLAC]\12 - Doofus.wav

Peak level 100.0 % Extraction speed 1.9 X Track quality 100.0 % Test CRC A12A2752 Copy CRC A12A2752 Track not present in AccurateRip database Copy OK

Track 13

Filename D:\Uploads\Russ Landau - 2013 - Survivor Caramoan [FLAC]\13 - Nailbiter.wav

Peak level 98.4 % Extraction speed 2.2 X Track quality 100.0 % Test CRC F88E0AB5 Copy CRC F88E0AB5 Track not present in AccurateRip database Copy OK

Track 14

Filename D:\Uploads\Russ Landau - 2013 - Survivor Caramoan [FLAC]\14 - Secrets Abound.wav

Peak level 98.8 % Extraction speed 2.4 X Track quality 100.0 % Test CRC 373943C3 Copy CRC 373943C3 Track not present in AccurateRip database Copy OK

Track 15

Filename D:\Uploads\Russ Landau - 2013 - Survivor Caramoan [FLAC]\15 - The Quest AV.wav

Pre-gap length 0:00:00.01

Peak level 98.8 % Extraction speed 2.9 X Track quality 100.0 % Test CRC 457A1E78 Copy CRC 457A1E78 Track not present in AccurateRip database Copy OK

Track 16

Filename D:\Uploads\Russ Landau - 2013 - Survivor Caramoan [FLAC]\16 - Grand Canyon.wav

Peak level 98.0 % Extraction speed 2.4 X Track quality 100.0 % Test CRC 079A0C25 Copy CRC 079A0C25 Track not present in AccurateRip database Copy OK

Track 17

Filename D:\Uploads\Russ Landau - 2013 - Survivor Caramoan [FLAC]\17 - Guilty as Sin.wav

Peak level 98.8 % Extraction speed 2.6 X Track quality 100.0 % Test CRC A91BA427 Copy CRC A91BA427 Track not present in AccurateRip database Copy OK

Track 18

Filename D:\Uploads\Russ Landau - 2013 - Survivor Caramoan [FLAC]\18 - Sweet Melancholy.wav

Pre-gap length 0:00:00.01

Peak level 98.7 % Extraction speed 2.7 X Track quality 100.0 % Test CRC 4A562CFC Copy CRC 4A562CFC Track not present in AccurateRip database Copy OK

Track 19

Filename D:\Uploads\Russ Landau - 2013 - Survivor Caramoan [FLAC]\19 - Huge Riser Challenge.wav

Peak level 100.0 % Extraction speed 2.4 X Track quality 100.0 % Test CRC 7CD869D3 Copy CRC 7CD869D3 Track not present in AccurateRip database Copy OK

Track 20

Filename D:\Uploads\Russ Landau - 2013 - Survivor Caramoan [FLAC]\20 - Real Heroes.wav

Peak level 98.9 % Extraction speed 2.8 X Track quality 100.0 % Test CRC 495F0E16 Copy CRC 495F0E16 Track not present in AccurateRip database Copy OK

Track 21

Filename D:\Uploads\Russ Landau - 2013 - Survivor Caramoan [FLAC]\21 - Super Drama.wav

Peak level 99.0 % Extraction speed 2.9 X Track quality 100.0 % Test CRC 9D479385 Copy CRC 9D479385 Track not present in AccurateRip database Copy OK

Track 22

Filename D:\Uploads\Russ Landau - 2013 - Survivor Caramoan [FLAC]\22 - Into the Deep.wav

Peak level 98.7 % Extraction speed 1.7 X Track quality 99.9 % Test CRC 0B8531CA Copy CRC 0B8531CA Track not present in AccurateRip database Copy OK

Track 23

Filename D:\Uploads\Russ Landau - 2013 - Survivor Caramoan [FLAC]\23 - Nature Calm.wav

Peak level 98.7 % Extraction speed 1.7 X Track quality 99.9 % Test CRC DEC83E5F Copy CRC DEC83E5F Track not present in AccurateRip database Copy OK

Track 24

Filename D:\Uploads\Russ Landau - 2013 - Survivor Caramoan [FLAC]\24 - Nnnnn.wav

Peak level 100.0 % Extraction speed 2.3 X Track quality 100.0 % Test CRC EDA218BF Copy CRC EDA218BF Track not present in AccurateRip database Copy OK

Track 25

Filename D:\Uploads\Russ Landau - 2013 - Survivor Caramoan [FLAC]\25 - Odd and Sneaky.wav

Peak level 99.7 % Extraction speed 2.9 X Track quality 100.0 % Test CRC 0A8BD4C1 Copy CRC 0A8BD4C1 Track not present in AccurateRip database Copy OK

Track 26

Filename D:\Uploads\Russ Landau - 2013 - Survivor Caramoan [FLAC]\26 - Suspence Challenge.wav

Peak level 100.0 % Extraction speed 2.8 X Track quality 100.0 % Test CRC C2EA52AC Copy CRC C2EA52AC Track not present in AccurateRip database Copy OK

Track 27

Filename D:\Uploads\Russ Landau - 2013 - Survivor Caramoan [FLAC]\27 - Pleasant Day.wav

Peak level 97.9 % Extraction speed 1.7 X Track quality 99.8 % Test CRC 44D0D42C Copy CRC 44D0D42C Track not present in AccurateRip database Copy OK

Track 28

Filename D:\Uploads\Russ Landau - 2013 - Survivor Caramoan [FLAC]\28 - Sadness.wav

Peak level 98.8 % Extraction speed 1.8 X Track quality 99.9 % Test CRC 166B200B Copy CRC 166B200B Track not present in AccurateRip database Copy OK

Track 29

Filename D:\Uploads\Russ Landau - 2013 - Survivor Caramoan [FLAC]\29 - To the Last Breath.wav

Peak level 98.9 % Extraction speed 3.0 X Track quality 100.0 % Test CRC 9BFF9826 Copy CRC 9BFF9826 Track not present in AccurateRip database Copy OK

Track 30

Filename D:\Uploads\Russ Landau - 2013 - Survivor Caramoan [FLAC]\30 - Somber Moment.wav

Peak level 98.8 % Extraction speed 3.0 X Track quality 100.0 % Test CRC 2E78EFEC Copy CRC 2E78EFEC Track not present in AccurateRip database Copy OK

Track 31

Filename D:\Uploads\Russ Landau - 2013 - Survivor Caramoan [FLAC]\31 - AV26 Big Promo.wav

Peak level 100.0 % Extraction speed 1.4 X Track quality 99.8 % Test CRC 05C76DD0 Copy CRC 05C76DD0 Track not present in AccurateRip database Copy OK

Track 32

Filename D:\Uploads\Russ Landau - 2013 - Survivor Caramoan [FLAC]\32 - AV26 Dub Step.wav

Peak level 100.0 % Extraction speed 3.4 X Track quality 100.0 % Test CRC 9687C9CC Copy CRC 9687C9CC Track not present in AccurateRip database Copy OK

None of the tracks are present in the AccurateRip database

No errors occurred

End of status report

---- CUETools DB Plugin V2.1.6

[CTDB TOCID: vv5rGXy1d_4wfAR6IibKEP4qAMQ-] disk not present in databaseSubmit result: vv5rGXy1d_4wfAR6IibKEP4qAMQ- has been uploaded

==== Log checksum 43E95EA1E3AA1C668143F1EC39C043B88FE08486B8F0713EE238320FCB2F8CBC ====
REM DATE 2013REM DISCID CE0CC820REM COMMENT "ExactAudioCopy v1.1"PERFORMER "Russ Landau"TITLE "Survivor: Caramoan"FILE "01 - Glorious Warriors.wav" WAVE TRACK 01 AUDIO TITLE "Glorious Warriors" PERFORMER "Russ Landau" INDEX 01 00:00:00FILE "02 - Ancient Voices 26 Caramoan.wav" WAVE TRACK 02 AUDIO TITLE "Ancient Voices 26 Caramoan" PERFORMER "Russ Landau" INDEX 01 00:00:00FILE "03 - Redemption AV.wav" WAVE TRACK 03 AUDIO TITLE "Redemption AV" PERFORMER "Russ Landau" INDEX 01 00:00:00FILE "04 - Into the Unknown.wav" WAVE TRACK 04 AUDIO TITLE "Into the Unknown" PERFORMER "Russ Landau" INDEX 01 00:00:00FILE "05 - Bondage Challenge.wav" WAVE TRACK 05 AUDIO TITLE "Bondage Challenge" PERFORMER "Russ Landau" INDEX 01 00:00:00FILE "06 - Ah Baba.wav" WAVE TRACK 06 AUDIO TITLE "Ah Baba" PERFORMER "Russ Landau" INDEX 01 00:00:00FILE "07 - AV Gods Soldiers.wav" WAVE TRACK 07 AUDIO TITLE "AV Gods Soldiers" PERFORMER "Russ Landau" INDEX 01 00:00:00FILE "08 - Beyond Horizon.wav" WAVE TRACK 08 AUDIO TITLE "Beyond Horizon" PERFORMER "Russ Landau" INDEX 01 00:00:00FILE "09 - El Phant.wav" WAVE TRACK 09 AUDIO TITLE "El Phant" PERFORMER "Russ Landau" INDEX 01 00:00:00FILE "10 - Mr Sneaky.wav" WAVE TRACK 10 AUDIO TITLE "Mr Sneaky" PERFORMER "Russ Landau" INDEX 01 00:00:00FILE "11 - Dark Layer.wav" WAVE TRACK 11 AUDIO TITLE "Dark Layer" PERFORMER "Russ Landau" INDEX 01 00:00:00FILE "12 - Doofus.wav" WAVE TRACK 12 AUDIO TITLE "Doofus" PERFORMER "Russ Landau" INDEX 01 00:00:00FILE "13 - Nailbiter.wav" WAVE TRACK 13 AUDIO TITLE "Nailbiter" PERFORMER "Russ Landau" INDEX 01 00:00:00FILE "14 - Secrets Abound.wav" WAVE TRACK 14 AUDIO TITLE "Secrets Abound" PERFORMER "Russ Landau" INDEX 01 00:00:00 TRACK 15 AUDIO TITLE "The Quest AV" PERFORMER "Russ Landau" INDEX 00 01:37:24FILE "15 - The Quest AV.wav" WAVE INDEX 01 00:00:00FILE "16 - Grand Canyon.wav" WAVE TRACK 16 AUDIO TITLE "Grand Canyon" PERFORMER "Russ Landau" INDEX 01 00:00:00FILE "17 - Guilty as Sin.wav" WAVE TRACK 17 AUDIO TITLE "Guilty as Sin" PERFORMER "Russ Landau" INDEX 01 00:00:00 TRACK 18 AUDIO TITLE "Sweet Melancholy" PERFORMER "Russ Landau" INDEX 00 01:42:49FILE "18 - Sweet Melancholy.wav" WAVE INDEX 01 00:00:00FILE "19 - Huge Riser Challenge.wav" WAVE TRACK 19 AUDIO TITLE "Huge Riser Challenge" PERFORMER "Russ Landau" INDEX 01 00:00:00FILE "20 - Real Heroes.wav" WAVE TRACK 20 AUDIO TITLE "Real Heroes" PERFORMER "Russ Landau" INDEX 01 00:00:00FILE "21 - Super Drama.wav" WAVE TRACK 21 AUDIO TITLE "Super Drama" PERFORMER "Russ Landau" INDEX 01 00:00:00FILE "22 - Into the Deep.wav" WAVE TRACK 22 AUDIO TITLE "Into the Deep" PERFORMER "Russ Landau" INDEX 01 00:00:00FILE "23 - Nature Calm.wav" WAVE TRACK 23 AUDIO TITLE "Nature Calm" PERFORMER "Russ Landau" INDEX 01 00:00:00FILE "24 - Nnnnn.wav" WAVE TRACK 24 AUDIO TITLE "Nnnnn" PERFORMER "Russ Landau" INDEX 01 00:00:00FILE "25 - Odd and Sneaky.wav" WAVE TRACK 25 AUDIO TITLE "Odd and Sneaky" PERFORMER "Russ Landau" INDEX 01 00:00:00FILE "26 - Suspence Challenge.wav" WAVE TRACK 26 AUDIO TITLE "Suspence Challenge" PERFORMER "Russ Landau" INDEX 01 00:00:00FILE "27 - Pleasant Day.wav" WAVE TRACK 27 AUDIO TITLE "Pleasant Day" PERFORMER "Russ Landau" INDEX 01 00:00:00FILE "28 - Sadness.wav" WAVE TRACK 28 AUDIO TITLE "Sadness" PERFORMER "Russ Landau" INDEX 01 00:00:00FILE "29 - To the Last Breath.wav" WAVE TRACK 29 AUDIO TITLE "To the Last Breath" PERFORMER "Russ Landau" INDEX 01 00:00:00FILE "30 - Somber Moment.wav" WAVE TRACK 30 AUDIO TITLE "Somber Moment" PERFORMER "Russ Landau" INDEX 01 00:00:00FILE "31 - AV26 Big Promo.wav" WAVE TRACK 31 AUDIO TITLE "AV26 Big Promo" PERFORMER "Russ Landau" INDEX 01 00:00:00FILE "32 - AV26 Dub Step.wav" WAVE TRACK 32 AUDIO TITLE "AV26 Dub Step" PERFORMER "Russ Landau" INDEX 01 00:00:00


Трекер:  [ 30-Июн-2017 22:06 ]

  

Скачать .torrent

Размер .torrent файла 13 KB


Размер: 280 MB
Хэш (hash) релиза: 4cf62640ff5f14e9b3502b37c48b7974ee99ccf3

Еще никто не оставлял запись к записи скачать торрент Шоу. Американский Последний герой 26 Острова Карамоан Survivor 26 Caramoan . Будь первым!

!Обратная связь