Скачать через торрент [VIDEO] Конг: Остров черепа Kong: Skull Island бесплатно русская версия torrent активатор

Если у вас наблюдаются проблемы со скриншотами, переходом по ссылками, скачиванием торрентов - проблемы в блокировщике рекламы AdBlock. #хорошегоДня!


Статистика раздачи
Размер:  1.66 GB   |    Зарегистрирован:  1 месяц 17 дней   |    .torrent скачан:  33 раза   |   
Раздают:  1  
   
Загрузка...
 
Автор Сообщение

Galfimbul

avatar Galfimbul


Конг: Остров черепа / Kong: Skull Island«Пробуждение Кинг-Конга»
Год выпуска: 2017
Страна: США / 20th Century Fox Film Corporation
Жанр: фантастика, фэнтези, боевик, приключения
Продолжительность: 01:58:23
Перевод: Русский Профессиональный (полное дублирование) BD EUR |Лицензия
Оригинальная дорожка: Есть
Субтитры: русские (форсированные, полные), английские (полные)Режиссер: Джордан Вот-Робертс / Jordan Vogt-RobertsВ ролях: Том Хиддлстон, Сэмюэл Л. Джексон, Джон Гудмен, Бри Ларсон, Тянь Цзин, Тоби Кеббелл, Джон Ортис, Кори Хоукинс, Джейсон Митчелл, Ши Уигхэм и другие .Описание: На неизвестный остров в Тихом океане попадает команда ученых, военных и искателей приключений. Они вторгаются во владения могучего Конга и тем самым развязывают сражение между человеком и природой. Очень скоро исследовательская миссия превращается в игру на выживание, ее участники вынуждены буквально прорубать себе путь к спасению. Релиз группы Качество: BDRip / рип с Blu-ray disc 1080p [EUR]
Формат: MP4
Видео кодек: H.264
Аудио кодек: AAC
Видео: 960х400 AR:2.40 1740 kbps 23.976 fps
Аудио №1: [Russian] 2ch 48 kHz 128 kbps - Профессиональный (полное дублирование) BD EUR |Лицензия
Аудио №2: [English] 2ch 48 kHz 128 kbps - Оригинал
avs [info]: 960x400p 1:1 @ 2997/125 fps (cfr)
x264 [info]: using SAR=1/1
x264 [info]: using cpu capabilities: MMX2 SSE2Fast SSSE3 SSE4.2 AVX FMA3 AVX2 LZCNT BMI2
x264 [info]: profile High, level 4.1

x264 [info]: frame I:1796 Avg QP:17.86 size: 62343
x264 [info]: frame P:43099 Avg QP:21.72 size: 17833
x264 [info]: frame B:125417 Avg QP:23.69 size: 5297
x264 [info]: consecutive B-frames: 4.2% 4.7% 11.5% 29.3% 17.6% 25.0% 4.5% 1.6% 1.7%
x264 [info]: mb I I16..4: 4.2% 76.8% 19.0%
x264 [info]: mb P I16..4: 1.4% 11.2% 1.6% P16..4: 41.5% 25.7% 14.5% 0.0% 0.0% skip: 3.9%
x264 [info]: mb B I16..4: 0.1% 1.0% 0.2% B16..8: 39.0% 9.9% 3.2% direct: 5.4% skip:41.3% L0:40.8% L1:45.0% BI:14.2%
x264 [info]: 8x8 transform intra:78.3% inter:64.8%
x264 [info]: direct mvs spatial:94.9% temporal:5.1%
x264 [info]: coded y,uvDC,uvAC intra: 87.1% 75.7% 45.4% inter: 25.4% 17.4% 5.7%
x264 [info]: i16 v,h,dc,p: 18% 18% 10% 54%
x264 [info]: i8 v,h,dc,ddl,ddr,vr,hd,vl,hu: 8% 7% 4% 10% 16% 14% 15% 11% 13%
x264 [info]: i4 v,h,dc,ddl,ddr,vr,hd,vl,hu: 7% 6% 3% 10% 17% 15% 16% 12% 14%
x264 [info]: i8c dc,h,v,p: 38% 26% 19% 17%
x264 [info]: Weighted P-Frames: Y:15.2% UV:10.2%
x264 [info]: ref P L0: 52.2% 15.1% 15.1% 5.8% 4.4% 2.9% 2.6% 1.6% 0.3% 0.1%
x264 [info]: ref B L0: 80.9% 9.7% 4.4% 2.2% 1.5% 0.9% 0.4%
x264 [info]: ref B L1: 95.1% 4.9%
x264 [info]: kb/s:1739.88

encoded 170312 frames, 19.43 fps, 1739.88 kb/s
GeneralComplete name : D:\Torrents\Kong Skull Island.2017.BDRip.x264.960x.rip by Frost O.S.mp4Format : MPEG-4Format profile : Base MediaCodec ID : isom (isom)File size : 1.66 GiBDuration : 1 h 58 minOverall bit rate mode : VariableOverall bit rate : 2 002 kb/sEncoded date : UTC 2017-06-29 16:35:47Tagged date : UTC 2017-06-29 16:35:47Writing application : My MP4Box GUI 0.6.0.6

VideoID : 1Format : AVCFormat/Info : Advanced Video CodecFormat profile : High@L4.1Format settings, CABAC : YesFormat settings, ReFrames : 8 framesCodec ID : avc1Codec ID/Info : Advanced Video CodingDuration : 1 h 58 minBit rate : 1 740 kb/sMaximum bit rate : 8 564 kb/sWidth : 960 pixelsHeight : 400 pixelsDisplay aspect ratio : 2.40:1Frame rate mode : ConstantFrame rate : 23.976 (23976/1000) FPSColor space : YUVChroma subsampling : 4:2:0Bit depth : 8 bitsScan type : ProgressiveBits/(Pixel*Frame) : 0.189Stream size : 1.44 GiB (87%)Title : Kong Skull Island.2017.BDRip.x264.960x.rip by Frost O.S.mp4Writing library : x264 core 148 r2744 b97ae06Encoding settings : cabac=1 / ref=8 / deblock=1:-1:-1 / analyse=0x3:0x113 / me=umh / subme=10 / psy=1 / psy_rd=0.95:0.00 / mixed_ref=1 / me_range=32 / chroma_me=1 / trellis=2 / 8x8dct=1 / cqm=0 / deadzone=21,11 / fast_pskip=0 / chroma_qp_offset=-2 / threads=6 / lookahead_threads=1 / sliced_threads=0 / nr=0 / decimate=0 / interlaced=0 / bluray_compat=0 / constrained_intra=0 / bframes=8 / b_pyramid=2 / b_adapt=2 / b_bias=0 / direct=3 / weightb=1 / open_gop=0 / weightp=2 / keyint=250 / keyint_min=23 / scenecut=40 / intra_refresh=0 / rc=2pass / mbtree=0 / bitrate=1740 / ratetol=1.0 / qcomp=0.70 / qpmin=0 / qpmax=69 / qpstep=4 / cplxblur=20.0 / qblur=0.5 / ip_ratio=1.40 / pb_ratio=1.30 / aq=2:0.80Encoded date : UTC 2017-06-29 13:27:38Tagged date : UTC 2017-06-29 16:36:27Color range : LimitedColor primaries : BT.709Transfer characteristics : BT.709Matrix coefficients : BT.709

Audio #1ID : 2Format : AACFormat/Info : Advanced Audio CodecFormat profile : LCCodec ID : 40Duration : 1 h 58 minBit rate mode : VariableBit rate : 128 kb/sMaximum bit rate : 138 kb/sChannel(s) : 2 channelsChannel positions : Front: L RSampling rate : 48.0 kHzFrame rate : 46.875 FPS (1024 spf)Compression mode : LossyStream size : 108 MiB (6%)Title : Russian / Dub, BD EUREncoded date : UTC 2017-06-29 16:36:16Tagged date : UTC 2017-06-29 16:36:27

Audio #2ID : 3Format : AACFormat/Info : Advanced Audio CodecFormat profile : LCCodec ID : 40Duration : 1 h 58 minBit rate mode : VariableBit rate : 128 kb/sMaximum bit rate : 138 kb/sChannel(s) : 2 channelsChannel positions : Front: L RSampling rate : 48.0 kHzFrame rate : 46.875 FPS (1024 spf)Compression mode : LossyStream size : 108 MiB (6%)Title : English / OriginalEncoded date : UTC 2017-06-29 16:36:23Tagged date : UTC 2017-06-29 16:36:27

Text #1ID : 4Format : Timed TextCodec ID : tx3gDuration : 1 h 57 minBit rate mode : VariableBit rate : 5 b/sStream size : 4.06 KiB (0%)Title : Russian / ForcedForced : NoEncoded date : UTC 2017-06-29 16:36:26Tagged date : UTC 2017-06-29 16:36:27

Text #2ID : 5Format : Timed TextCodec ID : tx3gDuration : 1 h 57 minBit rate mode : VariableBit rate : 87 b/sStream size : 75.3 KiB (0%)Title : Russian / FullForced : NoEncoded date : UTC 2017-06-29 16:36:26Tagged date : UTC 2017-06-29 16:36:27

Text #3ID : 6Format : Timed TextCodec ID : tx3gDuration : 1 h 57 minBit rate mode : VariableBit rate : 63 b/sStream size : 54.1 KiB (0%)Title : English / FullForced : NoEncoded date : UTC 2017-06-29 16:36:26Tagged date : UTC 2017-06-29 16:36:27


Трекер:  [ 29-Июн-2017 20:12 ]

  

Скачать .torrent

Размер .torrent файла 17 KB


Размер: 1.66 GB
Хэш (hash) релиза: ce2792ed6e7db26d3e2205e50e09fe7641a1af8d

Еще никто не оставлял запись к записи скачать торрент [VIDEO] Конг: Остров черепа Kong: Skull Island . Будь первым!

!Обратная связь