Скачать через торрент Кадишон, или Воспоминания ослика Cadichon ou les mémoires dun âne Фильм бесплатно в хорошем качестве torrent

Скачивайте на UnionPeer.org фильмы через торрент без регистрации. Новинки кино в хорошем качестве через торрент. На UnionPeer.org можно скачать через торрент фильмы 2014 и 2015 годов. Самые новые фильмы.

Скачать торрент Кадишон, или Воспоминания ослика Cadichon ou les mémoires dun âne бесплатно через .torrent фильм мультфильм сериал

Если у вас наблюдаются проблемы со скриншотами, переходом по ссылками, скачиванием торрентов - проблемы в блокировщике рекламы AdBlock. #хорошегоДня!


Статистика раздачи
Размер:  1.23 GB   |    Зарегистрирован:  2 месяца 21 день   |    .torrent скачан:  25 раз   |   
Раздают:  1  
   
Загрузка...
 
Автор Сообщение

Galfimbul

avatar Galfimbul


Кадишон, или Воспоминания ослика
Cadichon ou les mémoires d'un âne
Год выпуска: 1986
Страна: Франция
Жанр: мультсериал, семейный
Продолжительность серии: ≈12 мин.
Перевод: Студийный (одноголосый закадровый) ВПТО «Видеофильм» / Наталья Защипина

Режиссёр: Марсель Серен / Marcel Seren

Описание: Экранизация произведения, автор которого - графиня де Сегюр.

Релиз группы:

Доп. информация: Запись с телеканала «ТВ-6 Москва». Огромная благодарность Nekontroliruemij_devil за исходники!

Качество: VHSRip
Формат: MPG
Видео кодек: MPEG2
Аудио кодек: AC3
Видео: MPEG2 Video 720x576 (4:3) 25fps 7931-7943kbps
Аудио: Dolby AC3 48000Hz stereo 192kbps
9 серия
10 серия
GeneralComplete name : S01E09 Cadichon.mpgFormat : MPEG-PSFile size : 580 MiBDuration : 9 min 47 sOverall bit rate mode : VariableOverall bit rate : 8 288 kb/sWriting library : (dvd5: Oct 27 2015)

VideoID : 224 (0xE0)Format : MPEG VideoFormat version : Version 2Format profile : Main@MainFormat settings, BVOP : YesFormat settings, Matrix : DefaultFormat settings, GOP : VariableFormat settings, picture struc : FrameDuration : 9 min 47 sBit rate mode : VariableBit rate : 7 931 kb/sMaximum bit rate : 8 200 kb/sWidth : 720 pixelsHeight : 576 pixelsDisplay aspect ratio : 4:3Frame rate : 25.000 FPSStandard : PALColor space : YUVChroma subsampling : 4:2:0Bit depth : 8 bitsScan type : InterlacedScan order : Top Field FirstCompression mode : LossyBits/(Pixel*Frame) : 0.765Time code of first frame : 00:00:00:00Time code source : Group of pictures headerStream size : 555 MiB (96%)Writing library : (dvd5: Oct 27 2015)

AudioID : 189 (0xBD)-128 (0x80)Format : AC-3Format/Info : Audio Coding 3Mode extension : CM (complete main)Format settings, Endianness : BigMuxing mode : DVD-VideoDuration : 9 min 47 sBit rate mode : ConstantBit rate : 192 kb/sChannel(s) : 2 channelsChannel positions : Front: L RSampling rate : 48.0 kHzFrame rate : 31.250 FPS (1536 spf)Bit depth : 16 bitsCompression mode : LossyStream size : 13.4 MiB (2%)


Трекер:  [ 29-Июн-2017 03:24 ]

  

Скачать .torrent

Размер .torrent файла 13 KB


Размер: 1.23 GB
Хэш (hash) релиза: ae66a5adfbdba4be3a30a456a12e2cdd22850ad3
Подписка на обновления:

Еще никто не оставлял запись к записи скачать торрент Кадишон, или Воспоминания ослика Cadichon ou les mémoires dun âne . Будь первым!

!Обратная связь