Скачать через торрент В тени побед Фильм бесплатно в хорошем качестве torrent

Скачивайте на UnionPeer.org фильмы через торрент без регистрации. Новинки кино в хорошем качестве через торрент. На UnionPeer.org можно скачать через торрент фильмы 2014 и 2015 годов. Самые новые фильмы.

Скачать торрент В тени побед бесплатно через .torrent фильм мультфильм сериал

Если у вас наблюдаются проблемы со скриншотами, переходом по ссылками, скачиванием торрентов - проблемы в блокировщике рекламы AdBlock. #хорошегоДня!


Статистика раздачи
Размер:  799 MB   |    Зарегистрирован:  2 месяца 25 дней   |    .torrent скачан:  27 раз   |   
Раздают:  1  
   
Загрузка...
 
Автор Сообщение

Galfimbul

avatar Galfimbul


В тени побед

Дата/Год выпуска: 2010
Страна: Россия, «КремльФильм»
Жанр: Документальный, история, спецслужбы
Продолжительность: 00:55:47
Перевод: Не требуется
Режиссер: Евгений Малевский

Телеканал: ОТР
Описание: История службы охраны высших должностных лиц СССР во время Великой Отечественной войны. В фильме раскрываются ранее неизвестные факты, которые хранились под грифом «Совершенно секретно»

Доп. информация: Авторство релиза - alf62
Большое спасибо ПЕЧАЛЬ, за предоставленный постер!



качество: SATRip
формат: AVI
Видео: 720x400 (1.80:1), 25 fps, XviD build 73 ~1799 kbps avg, 0.25 bit/pixel
Аудио: 48 kHz, AC3 Dolby Digital, 2/0 (L,R) ch, ~192.00 kbps avg
В тени побед\В.тени.побед.2010.XviD.SATRip.alf62.aviFormat : AVIFormat/Info : Audio Video InterleaveFile size : 799 MiBDuration : 55 min 47 sOverall bit rate : 2 002 kb/sWriting application : VirtualDubMod 1.5.10.3 | www.virtualdub-fr.org || (build 2550/release)Writing library : VirtualDubMod build 2550/release

VideoID : 0Format : MPEG-4 VisualFormat profile : Advanced Simple@L5Format settings, BVOP : 2Format settings, QPel : NoFormat settings, GMC : No warppointsFormat settings, Matrix : Default (MPEG)Codec ID : XVIDCodec ID/Hint : XviDDuration : 55 min 47 sBit rate : 1 800 kb/sWidth : 720 pixelsHeight : 400 pixelsDisplay aspect ratio : 16:9Frame rate : 25.000 FPSColor space : YUVChroma subsampling : 4:2:0Bit depth : 8 bitsScan type : ProgressiveCompression mode : LossyBits/(Pixel*Frame) : 0.250Stream size : 718 MiB (90%)Writing library : XviD 73

AudioID : 1Format : AC-3Format/Info : Audio Coding 3Format settings, Endianness : BigCodec ID : 2000Duration : 55 min 47 sBit rate mode : ConstantBit rate : 192 kb/sChannel(s) : 2 channelsChannel positions : Front: L RSampling rate : 48.0 kHzFrame rate : 31.250 FPS (1536 spf)Bit depth : 16 bitsCompression mode : LossyStream size : 76.6 MiB (10%)Alignment : Split accross interleavesInterleave, duration : 40 ms (1.00 video frame)Interleave, preload duratio : 500 msService kind : Complete Main


Трекер:  [ 25-Июн-2017 18:42 ]

  

Скачать .torrent

Размер .torrent файла 16 KB


Размер: 799 MB
Хэш (hash) релиза: a57d91240e30beec9a1cfb41da1d5a2ba3b8f5c5
Подписка на обновления:

Еще никто не оставлял запись к записи скачать торрент В тени побед . Будь первым!

!Обратная связь