Скачать через торрент Сказки Киплинга Histoires comme ça Фильм бесплатно в хорошем качестве torrent

Скачивайте на UnionPeer.org фильмы через торрент без регистрации. Новинки кино в хорошем качестве через торрент. На UnionPeer.org можно скачать через торрент фильмы 2014 и 2015 годов. Самые новые фильмы.

Скачать торрент Сказки Киплинга Histoires comme ça бесплатно через .torrent фильм мультфильм сериал

Если у вас наблюдаются проблемы со скриншотами, переходом по ссылками, скачиванием торрентов - проблемы в блокировщике рекламы AdBlock. #хорошегоДня!


Статистика раздачи
Размер:  1.72 GB   |    Зарегистрирован:  4 месяца 29 дней   |    .torrent скачан:  25 раз   |   
Раздают:  1  
   
Загрузка...
 
Автор Сообщение

Galfimbul

avatar Galfimbul


Сказки Киплинга
Histoires comme ça / Just So Stories

Страна: Франция
Жанр: Мультфильм, детский
Продолжительность серии: 10 x ~ 00:12:42
Год выпуска: 2009
Перевод: Профессиональный (двухголосый закадровый)
Русские субтитры: нет

Режиссёр: Жан-Жак Прюнэ / Jean-Jacques Prunes

Описание: Великолепные, остроумные, экзотические сказки знаменитого английского писателя Редьярда Киплинга — их знают и любят многие поколения читателей во всем мире. А теперь — на радость и взрослым и детям — их можно посмотреть.

Качество: DVDRip
Формат: AVI
Видео: 704x384 (16x9), 25 fps, XviD ~1535 Кбит/с
Аудио #1: AC3 Dolby Digital, 48 kHz, 2 ch, 192 kbps, Русский
Аудио #2: AC3 Dolby Digital, 48 kHz, 2 ch, 192 kbps, English
Субтитры: отсутствуют

| IMDB | КиноПоиск | Сэмпл |
1 - Как леопард стал пятнистым
2 - Кот, который гулял сам по себе
3 - Как появились броненосцы
4 - Мотылек, который топнул ножкой
5 - Откуда у кита такая глотка и откуда у носорога такая шкура
6 - Отчего у верблюда вырос горб и приключения старого кенгуру
7 - Краб, который играл с морем
8 - Как было написано первое письмо
9 - Как была составлена первая азбука
10 - Слоненок
ОбщееПолное имя : F:\Skazki.Kiplinga.2009.XviD.DVDRip\01.Kak.leopard.stal.pyatnistym.2009.XviD.DVDRip.aviФормат : AVIФормат/Информация : Audio Video InterleaveРазмер файла : 176 МбайтПродолжительность : 12 м.Общий поток : 1934 Кбит/секПрограмма кодирования : VirtualDubMod 1.5.10.2 (build 2542/release)Библиотека кодирования : VirtualDubMod build 2542/release

ВидеоИдентификатор : 0Формат : MPEG-4 VisualПрофиль формата : Advanced Simple@L5Параметр BVOP формата : 2Параметр QPel формата : НетПараметр GMC формата : Без точки переходаПараметр матрицы формата : ВыборочнаяИдентификатор кодека : XVIDИдентификатор кодека/Подсказка : XviDПродолжительность : 12 м.Битрейт : 1535 Кбит/секШирина : 704 пикселяВысота : 384 пикселяСоотношение сторон : 1,85:1Частота кадров : 25,000 кадров/секЦветовое пространство : YUVСубдискретизация насыщенности : 4:2:0Битовая глубина : 8 битТип развёртки : ПрогрессивнаяМетод сжатия : С потерямиБит/(Пиксели*Кадры) : 0.227Размер потока : 140 Мбайт (79%)Библиотека кодирования : XviD 65

Аудио #1Идентификатор : 1Формат : AC-3Формат/Информация : Audio Coding 3Расширение режима : CM (complete main)Параметр Endianness формата : BigИдентификатор кодека : 2000Продолжительность : 12 м.Вид битрейта : ПостоянныйБитрейт : 192 Кбит/секКаналы : 2 каналаРасположение каналов : Front: L RЧастота : 48,0 КГцБитовая глубина : 16 битМетод сжатия : С потерямиЗадержка видео : 1 с. 418 мс.Размер потока : 17,5 Мбайт (10%)Выравнивание : Разделение по промежуткамПродолжительность промежутка : 40 мс. (1,00 видеокадр)Время предзагрузки промежутка : 500 мс.

Аудио #2Идентификатор : 2Формат : AC-3Формат/Информация : Audio Coding 3Расширение режима : CM (complete main)Параметр Endianness формата : BigИдентификатор кодека : 2000Продолжительность : 12 м.Вид битрейта : ПостоянныйБитрейт : 192 Кбит/секКаналы : 2 каналаРасположение каналов : Front: L RЧастота : 48,0 КГцБитовая глубина : 16 битМетод сжатия : С потерямиРазмер потока : 17,5 Мбайт (10%)Выравнивание : Разделение по промежуткамПродолжительность промежутка : 40 мс. (1,00 видеокадр)Время предзагрузки промежутка : 500 мс.


Трекер:  [ 24-Июн-2017 19:54 ]

  

Скачать .torrent

Размер .torrent файла 18 KB


Размер: 1.72 GB
Хэш (hash) релиза: 9f279cdd6f462449e154d6ebda8b23c1fb1584de
Подписка на обновления:

Еще никто не оставлял запись к записи скачать торрент Сказки Киплинга Histoires comme ça . Будь первым!

!Обратная связь