Скачать через торрент Навсикая из Долины ветров Kaze no tani no Naushika бесплатно Аниме Все серии на русском torrent

Если у вас наблюдаются проблемы со скриншотами, переходом по ссылками, скачиванием торрентов - проблемы в блокировщике рекламы AdBlock. #хорошегоДня!


Статистика раздачи
Размер:  7 GB   |    Зарегистрирован:  3 месяца   |    .torrent скачан:  25 раз   |   
Раздают:  1  
   
Загрузка...
 
Автор Сообщение

Galfimbul

avatar Galfimbul


Страна: Япония
Год выпуска: 1984
Жанр: фантастика, фэнтези, драма
Тип: Movie
Продолжительность: 117 мин.
Режиссер: Хаяо Миядзаки
Студия: Ghibli / Top Craft

Описание: В будущем человечество, столетиями безоглядно эксплуатировавшее природу, пало жертвой своей гордыни. Землю постигла ужасная экологическая катастрофа, процветающие когда-то промышленные цивилизации обратились в прах, а поверхность планеты покрыло гигантское море Леса, испускающее в атмосферу ядовитые споры своих растений. Оставшимся в живых людям приходится жить в тени Леса и его чудовищных насекомообразных обитателей, пытаясь не допустить распостранения вредоносной растительности. Мирная Долина Ветров - одно из царств, образовавшихся на руинах прежних государств. Жители Долины обожают своего доброго правителя и его дочь Навсикаю, необычную девочку, находящую общий язык с исполинскими насекомыми Леса, странными порождениями нарушенной экосистемы. Но безмятежное существование Долины Ветров нарушается, когда маленькая страна становится пешкой в играх крупных воинственных соседей, сражающихся за остатки драгоценных природных ресурсов планеты. Тем не менее, скрытому потенциалу Навсикаи ещё предстоит раскрыться, и юной принцессе, возможно, удастся изменить судьбы мира...

Доп. информация: Данный релиз отличается от имеющихся на трекере отсутствием шума. При этом замыливания деталей. В результате получается очень хороший рип в соотношении вес/качество, так как шумное видео требует высокого битрейта. Автор неизвестен. И на вопросы (на няшке) о том, какие фильтры и шумодав он использовал остаются без ответа.

Качество: BDRip
Тип релиза: Без хардсаба
Формат видео: MKV
Наличие линковки: Нет
Видео: MPEG-4 AVC Video / 1920x1036 / 10 bit / 5 718 kbps / 23,976 fps / 16:9 / High Profile 5.2
Аудио: DTS-HD MA / ~1 536 kbps / 48 kHz / 24 bits / 2 ch Язык Японский
Аудио 2: AC3 / 192 kbps / 48 kHz / 2 ch Язык Русский (внешним файлом); Озвучка 2: Сонотек (Dub)
Аудио 3: AC3 / 192 kbps / 48 kHz / 2 ch; Язык Русский (внешним файлом); Озвучка 3: Киномания (MVO)
Аудио 4: AC3 / 192 kbps / 48 kHz / 2 ch; Язык Русский (внешним файлом); Озвучка 4: Tycoon-Studio (DVO)
Аудио 5: AC3 / 256 kbps / 48 kHz / 2 ch; Язык Английский (внешним файлом);
Аудио 6: AC3 / 192 kbps / 48 kHz / 2 ch; Язык Японский (внешним файлом); Озвучка 6: Комментарии Хидэаки Анно и Казуёси Катаямы
Субтитры: ASS / встроенные Язык субтитров английский ; Перевод: THORAnime
Субтитры 2: ASS / внешние Язык субтитров русский; Перевод 2: Анна Панина (Сонотек)
Субтитры 3: ASS / внешние Язык субтитров русский; Перевод 3: AlKnave & Sve
Субтитры 4: ASS / внешние Язык субтитров русский; Перевод 4: burnin-snikers
Субтитры 5: ASS / внешние Язык субтитров русский; Перевод 5:Комментарии Хидэаки Анно и Казуёси Катаямы
GeneralUnique ID : 251994756276572066961974575010413094798 (0xBD946CB8C1ADCC39AE2636209649278E)Complete name : D:\Загрузки\Nausicaa\Nausicaa of the Valley of the Wind [6F3C0B17].mkvFormat : MatroskaFormat version : Version 4 / Version 2File size : 5.95 GiBDuration : 1 h 57 minOverall bit rate : 7 281 kb/sMovie name : Nausicaä of the Valley of the Wind (1984)Encoded date : UTC 2017-06-23 14:43:46Writing application : mkvmerge v12.0.0 ('Trust / Lust') 64bitWriting library : libebml v1.3.4 + libmatroska v1.4.5Attachments : CronosPro-SemiboldIt.ttf / Profile-Regular.otf / CronosPro-Semibold.ttf

VideoID : 1Format : AVCFormat/Info : Advanced Video CodecFormat profile : High 10@L5.2Format settings, CABAC : YesFormat settings, ReFrames : 16 framesCodec ID : V_MPEG4/ISO/AVCDuration : 1 h 57 minBit rate : 5 718 kb/sWidth : 1 920 pixelsHeight : 1 036 pixelsDisplay aspect ratio : 1.85:1Frame rate mode : ConstantFrame rate : 23.976 (24000/1001) FPSStandard : NTSCColor space : YUVChroma subsampling : 4:2:0Bit depth : 10 bitsScan type : ProgressiveBits/(Pixel*Frame) : 0.120Stream size : 4.67 GiB (79%)Writing library : x264 core 148 r2762+56 7979737 t_mod_Custom [10-bit@all X86_64]Encoding settings : cabac=1 / ref=16 / deblock=1:1:0 / analyse=0x3:0x133 / me=tesa / subme=10 / psy=1 / fade_compensate=0.80 / psy_rd=0.60:0.00 / mixed_ref=1 / me_range=24 / chroma_me=1 / trellis=2 / 8x8dct=1 / cqm=0 / deadzone=21,11 / fast_pskip=0 / chroma_qp_offset=-2 / threads=24 / lookahead_threads=6 / sliced_threads=0 / nr=0 / decimate=1 / interlaced=0 / bluray_compat=0 / constrained_intra=0 / fgo=0 / bframes=16 / b_pyramid=2 / b_adapt=2 / b_bias=0 / direct=3 / weightb=1 / open_gop=1 / weightp=2 / keyint=250 / keyint_min=23 / scenecut=40 / intra_refresh=0 / rc_lookahead=60 / rc=crf / mbtree=1 / crf=16.5000 / qcomp=0.76 / qpmin=0:0:0 / qpmax=81:81:81 / qpstep=4 / vbv_maxrate=720000 / vbv_bufsize=720000 / crf_max=0.0 / nal_hrd=none / filler=0 / ip_ratio=1.40 / aq=3:0.78 / aq-sensitivity=10.00 / aq-factor=1.00:1.00:1.00 / aq2=1:0.88 / aq2-sensitivity=17.00 / aq2-factor=1.00:1.00:1.00 / aq3=4:[0.39:0.39]:[0.39:0.39]:[0.39:0.39]:[0.39:0.39] / aq3-sensitivity=10.00 / aq3-factor=[1.00:1.00]:[1.00:1.00]:[1.00:1.00] / aq3-boundary=768:256:96Language : EnglishDefault : YesForced : NoColor range : LimitedColor primaries : BT.709Transfer characteristics : BT.709Matrix coefficients : BT.709

AudioID : 2Format : DTSFormat/Info : Digital Theater SystemsFormat profile : MA / CoreMode : 16Format settings, Endianness : BigCodec ID : A_DTSDuration : 1 h 57 minBit rate mode : Variable / ConstantBit rate : 1 536 kb/s / 384 kb/sChannel(s) : 2 channelsChannel positions : Front: L RSampling rate : 48.0 kHzFrame rate : 93.750 FPS (512 spf)Bit depth : 24 bitsCompression mode : Lossless / LossyStream size : 1.27 GiB (21%)Language : JapaneseDefault : YesForced : No

TextID : 3Format : ASSCodec ID : S_TEXT/ASSCodec ID/Info : Advanced Sub Station AlphaDuration : 1 h 55 minBit rate : 71 b/sCount of elements : 1149Compression mode : LosslessStream size : 60.2 KiB (0%)Language : EnglishDefault : YesForced : No

Menu00:00:00.000 : en:00:00:00.00000:01:59.995 : en:00:01:59.99500:07:42.462 : en:00:07:42.46200:12:10.104 : en:00:12:10.10400:18:37.783 : en:00:18:37.78300:23:34.413 : en:00:23:34.41300:28:38.717 : en:00:28:38.71700:33:30.175 : en:00:33:30.17500:38:15.251 : en:00:38:15.25100:44:56.736 : en:00:44:56.73600:49:53.032 : en:00:49:53.03200:54:40.611 : en:00:54:40.61100:58:27.421 : en:00:58:27.42101:01:19.259 : en:01:01:19.25901:07:53.528 : en:01:07:53.52801:13:51.177 : en:01:13:51.17701:18:39.131 : en:01:18:39.13101:24:27.896 : en:01:24:27.89601:30:49.861 : en:01:30:49.86101:34:39.340 : en:01:34:39.34001:40:10.129 : en:01:40:10.12901:46:05.276 : en:01:46:05.27601:49:44.036 : en:01:49:44.03601:52:08.931 : en:01:52:08.93101:55:02.229 : en:01:55:02.22901:57:01.389 : en:01:57:01.389
...4648841 - отсутствие зерна, лучше качество видео.
...3067233 - отсутствие зерна, лучше качество видео.
...3065829 - 1080p, отсутствие зерна.
...3067242 - BDRip, отсутствие зерна.
...5063755 - BDRip, другой трансфер исходника. Здесь рип с японского издания, там ремукс коллекционного издания.
...4629918 - BDRip, другое издание.

Оригинальный исходник:
Данный релиз:


Трекер:  [ 23-Июн-2017 20:30 ]

  

Скачать .torrent

Размер .torrent файла 19 KB


Размер: 7 GB
Хэш (hash) релиза: bb55fc7e19a032893e2d810b2109cdaf05d343f9
Подписка на обновления:

Торренты, похожие на Навсикая из Долины ветров Kaze no tani no Naushika скачать торрент

Форум Название Автор Размер S L Добавлен
Аниме | Rips ·· Навсикая из Долины ветров / Nausicaa of the Valley of the Wind / Kaze no tani no Naushika / Наусика из Долины ветров [Movie] [Без хардсаба] [RUS(int), JAP+SUB] [1984 г., Приключения, фэнтези, фантастика, драма, BDRip] [HWP] Galfimbul 21273830971.98 GB 0 0 1454611704

21:48

4-Фев-16

Еще никто не оставлял запись к записи скачать торрент Навсикая из Долины ветров Kaze no tani no Naushika . Будь первым!

!Обратная связь