Скачать через торрент Да здравствует Королевская семья Long Live the Royals Фильм бесплатно в хорошем качестве torrent

Скачивайте на UnionPeer.org фильмы через торрент без регистрации. Новинки кино в хорошем качестве через торрент. На UnionPeer.org можно скачать через торрент фильмы 2014 и 2015 годов. Самые новые фильмы.

Скачать торрент Да здравствует Королевская семья Long Live the Royals бесплатно через .torrent фильм мультфильм сериал

Если у вас наблюдаются проблемы со скриншотами, переходом по ссылками, скачиванием торрентов - проблемы в блокировщике рекламы AdBlock. #хорошегоДня!


Статистика раздачи
Размер:  2.11 GB   |    Зарегистрирован:  4 месяца 29 дней   |    .torrent скачан:  14 раз   |   
Раздают:  1  
   
Загрузка...
 
Автор Сообщение

Galfimbul

avatar Galfimbul


Да здравствует Королевская семья / Long Live the Royals

Страна: США
Жанр: Мультсериал, комедия
Продолжительность: ~ 11 мин.
Год выпуска: 2014-2015
Перевод 1: Одноголосый закадровый Eugene Greene (только пилотная серия)
Перевод 2: Одноголосый закадровый RedRussian1337
Перевод 3: Одноголосый закадровый СаунДаБ
Русские субтитры: только для пилотной серии

Режиссёр: Шон Шелес / Sean Szeles
Роли озвучивали: Джон Дейли, Венди Маклендон-Кови, Джиллиан Джейкобс, Киран Калкин, Никки Рэпп, Оратио Санс, Питер Серафинович
Описание: В чудесном старом замке эпохи средневековья живёт весьма необычный король по имени Руфус, прославившийся своими сумасбродными и чудаковатыми манерами. Впрочем, вся королевская семья не далеко от него ушла, поддерживая атмосферу неординарности и безумства. К примеру королева Элеонора обожает всё изысканное и не смотря на топорность своих манер, пытается строить из себя грациозную даму. Дочь Руфуса Розалина слушает тяжёлый рок, стараясь выглядеть брутальной, а о сыновьях Алексе и Питере вообще лучше промолчать. Даже среди подданных трудно встретить адекватного человека. Королевский маг-горбун постоянно пытается сварганить волшебный эликсир молодости, но каждый раз эффект от зелья приносить лишь неприятности. Лишь дворецкий Фредерик, сумевший сохранить рассудок и хладнокровие, хоть как то спасает ситуацию.

Список серий:
S00E00 - "Long Live the Royals"
S01E01 - "Yule Scare"
S01E02 - "Punk Show"
S01E03 - "Snore Much"
S01E04 - "The Feast"

Доп. информация: В пилотной серии озвучки от Eugene Greene и СаунДаБ. В остальных - от RedRussian1337 и СаунДаБ. Пилот и первые 2 серии в озвучке СаунДаБ кое-где содержат нецензурную брань, поэтому по-умолчанию включены дорожки Eugene Greene/RedRussian1337.

Семпл пилотной серии
Семпл

Качество: WEB-DL 1080p
Формат: MKV
Видео: AVC, 16:9, 1920*1080 (пилот 1916*1076), ~5200 Kbps, 23,976 fps
Аудио 1: MP3, 48.0 KHz, 2 ch, 256 kbps Eugene Greene (только пилотная серия)
Аудио 2: AAC, 48.0 KHz, 2 ch, 128 kbps RedRussian1337
Аудио 3: AAC, 44.1 KHz, 2 ch, 128 kbps СаунДаБ
Аудио 4: AAC, 48.0 KHz, 2 ch, 128 kbps (eng)
Субтитры: Английские, Русские (только для пилотной серии)
GeneralUnique ID : 124953067965201640144240520469651002751 (0x5E0115E4E1FB97901D4938452C02157F)Complete name : ./Long.Live.the.Royals.S01E02.Punk.Show.1080p.WEB-DL.mkvFormat : MatroskaFormat version : Version 4 / Version 2File size : 453 MiBDuration : 11 min 23 sOverall bit rate : 5 561 kb/sMovie name : Да здравствует Королевская семья s01e02Encoded date : UTC 2017-06-21 17:01:20Writing application : mkvmerge v12.0.0 ('Trust / Lust') 64bitWriting library : libebml v1.3.4 + libmatroska v1.4.5

VideoID : 1Format : AVCFormat/Info : Advanced Video CodecFormat profile : High@L4Format settings, CABAC : YesFormat settings, ReFrames : 4 framesCodec ID : V_MPEG4/ISO/AVCDuration : 11 min 23 sBit rate : 5 158 kb/sWidth : 1 920 pixelsHeight : 1 080 pixelsDisplay aspect ratio : 16:9Frame rate mode : ConstantFrame rate : 23.976 (24000/1001) FPSColor space : YUVChroma subsampling : 4:2:0Bit depth : 8 bitsScan type : ProgressiveBits/(Pixel*Frame) : 0.104Stream size : 420 MiB (93%)Language : EnglishDefault : YesForced : NoColor range : LimitedColor primaries : BT.709Transfer characteristics : BT.709Matrix coefficients : BT.709

Audio #1ID : 2Format : AACFormat/Info : Advanced Audio CodecFormat profile : LCCodec ID : A_AACDuration : 11 min 23 sBit rate : 128 kb/sChannel(s) : 2 channelsChannel positions : Front: L RSampling rate : 48.0 kHzFrame rate : 46.875 FPS (1024 spf)Compression mode : LossyStream size : 10.4 MiB (2%)Title : RUS (RedRussian1337)Language : RussianDefault : YesForced : No

Audio #2ID : 3Format : AACFormat/Info : Advanced Audio CodecFormat profile : LCCodec ID : A_AACDuration : 11 min 23 sBit rate : 151 kb/sChannel(s) : 2 channelsChannel positions : Front: L RSampling rate : 44.1 kHzFrame rate : 43.066 FPS (1024 spf)Compression mode : LossyStream size : 12.3 MiB (3%)Title : RUS (СунДаБ) 18+Language : RussianDefault : NoForced : No

Audio #3ID : 4Format : AACFormat/Info : Advanced Audio CodecFormat profile : LCCodec ID : A_AACDuration : 11 min 23 sBit rate : 124 kb/sChannel(s) : 2 channelsChannel positions : Front: L RSampling rate : 48.0 kHzFrame rate : 46.875 FPS (1024 spf)Compression mode : LossyStream size : 10.1 MiB (2%)Title : ENGLanguage : EnglishDefault : NoForced : No

TextID : 5Format : UTF-8Codec ID : S_TEXT/UTF8Codec ID/Info : UTF-8 Plain TextDuration : 11 min 3 sBit rate : 150 b/sCount of elements : 295Stream size : 12.2 KiB (0%)Language : EnglishDefault : NoForced : No

GeneralUnique ID : 84995885547108461166992873793283452061 (0x3FF19CB36770356D1DFBC595B06C6C9D)Complete name : ./Long.Live.the.Royals.S01E04.The.Feast.1080p.WEB-DL.mkvFormat : MatroskaFormat version : Version 4 / Version 2File size : 455 MiBDuration : 11 min 23 sOverall bit rate : 5 578 kb/sMovie name : Да здравствует Королевская семья s01e04Encoded date : UTC 2017-06-21 17:02:33Writing application : mkvmerge v12.0.0 ('Trust / Lust') 64bitWriting library : libebml v1.3.4 + libmatroska v1.4.5

VideoID : 1Format : AVCFormat/Info : Advanced Video CodecFormat profile : High@L4Format settings, CABAC : YesFormat settings, ReFrames : 4 framesCodec ID : V_MPEG4/ISO/AVCDuration : 11 min 23 sBit rate : 5 173 kb/sWidth : 1 920 pixelsHeight : 1 080 pixelsDisplay aspect ratio : 16:9Frame rate mode : ConstantFrame rate : 23.976 (24000/1001) FPSColor space : YUVChroma subsampling : 4:2:0Bit depth : 8 bitsScan type : ProgressiveBits/(Pixel*Frame) : 0.104Stream size : 421 MiB (93%)Language : EnglishDefault : YesForced : NoColor range : LimitedColor primaries : BT.709Transfer characteristics : BT.709Matrix coefficients : BT.709

Audio #1ID : 2Format : AACFormat/Info : Advanced Audio CodecFormat profile : LCCodec ID : A_AACDuration : 11 min 23 sBit rate : 128 kb/sChannel(s) : 2 channelsChannel positions : Front: L RSampling rate : 48.0 kHzFrame rate : 46.875 FPS (1024 spf)Compression mode : LossyStream size : 10.4 MiB (2%)Title : RUS (RedRussian1337)Language : RussianDefault : YesForced : No

Audio #2ID : 3Format : AACFormat/Info : Advanced Audio CodecFormat profile : LCCodec ID : A_AACDuration : 11 min 23 sBit rate : 152 kb/sChannel(s) : 2 channelsChannel positions : Front: L RSampling rate : 44.1 kHzFrame rate : 43.066 FPS (1024 spf)Compression mode : LossyStream size : 12.4 MiB (3%)Title : RUS (СунДаБ)Language : RussianDefault : NoForced : No

Audio #3ID : 4Format : AACFormat/Info : Advanced Audio CodecFormat profile : LCCodec ID : A_AACDuration : 11 min 23 sBit rate : 125 kb/sChannel(s) : 2 channelsChannel positions : Front: L RSampling rate : 48.0 kHzFrame rate : 46.875 FPS (1024 spf)Compression mode : LossyStream size : 10.2 MiB (2%)Title : ENGLanguage : EnglishDefault : NoForced : No

TextID : 5Format : UTF-8Codec ID : S_TEXT/UTF8Codec ID/Info : UTF-8 Plain TextDuration : 11 min 14 sBit rate : 150 b/sCount of elements : 296Stream size : 12.4 KiB (0%)Language : EnglishDefault : NoForced : No

GeneralUnique ID : 198367766297708378045342102607925772362 (0x953C3DFB033241420D6C0CBD76FA804A)Complete name : ./Long.Live.the.Royals.S01E01.Yule.Scare.1080p.WEB-DL.mkvFormat : MatroskaFormat version : Version 4 / Version 2File size : 446 MiBDuration : 11 min 23 sOverall bit rate : 5 476 kb/sMovie name : Да здравствует Королевская семья s01e01Encoded date : UTC 2017-06-21 17:00:40Writing application : mkvmerge v12.0.0 ('Trust / Lust') 64bitWriting library : libebml v1.3.4 + libmatroska v1.4.5

VideoID : 1Format : AVCFormat/Info : Advanced Video CodecFormat profile : High@L4Format settings, CABAC : YesFormat settings, ReFrames : 4 framesCodec ID : V_MPEG4/ISO/AVCDuration : 11 min 23 sBit rate : 5 070 kb/sWidth : 1 920 pixelsHeight : 1 080 pixelsDisplay aspect ratio : 16:9Frame rate mode : ConstantFrame rate : 23.976 (24000/1001) FPSColor space : YUVChroma subsampling : 4:2:0Bit depth : 8 bitsScan type : ProgressiveBits/(Pixel*Frame) : 0.102Stream size : 413 MiB (93%)Language : EnglishDefault : YesForced : NoColor range : LimitedColor primaries : BT.709Transfer characteristics : BT.709Matrix coefficients : BT.709

Audio #1ID : 2Format : AACFormat/Info : Advanced Audio CodecFormat profile : LCCodec ID : A_AACDuration : 11 min 23 sBit rate : 128 kb/sChannel(s) : 2 channelsChannel positions : Front: L RSampling rate : 48.0 kHzFrame rate : 46.875 FPS (1024 spf)Compression mode : LossyStream size : 10.4 MiB (2%)Title : RUS (RedRussian1337)Language : RussianDefault : YesForced : No

Audio #2ID : 3Format : AACFormat/Info : Advanced Audio CodecFormat profile : LCCodec ID : A_AACDuration : 11 min 23 sBit rate : 151 kb/sChannel(s) : 2 channelsChannel positions : Front: L RSampling rate : 44.1 kHzFrame rate : 43.066 FPS (1024 spf)Compression mode : LossyStream size : 12.3 MiB (3%)Title : RUS (СунДаБ) 18+Language : RussianDefault : NoForced : No

Audio #3ID : 4Format : AACFormat/Info : Advanced Audio CodecFormat profile : LCCodec ID : A_AACDuration : 11 min 23 sBit rate : 124 kb/sChannel(s) : 2 channelsChannel positions : Front: L RSampling rate : 48.0 kHzFrame rate : 46.875 FPS (1024 spf)Compression mode : LossyStream size : 10.1 MiB (2%)Title : ENGLanguage : EnglishDefault : NoForced : No

TextID : 5Format : UTF-8Codec ID : S_TEXT/UTF8Codec ID/Info : UTF-8 Plain TextDuration : 11 min 3 sBit rate : 160 b/sCount of elements : 300Stream size : 13.0 KiB (0%)Language : EnglishDefault : NoForced : No

GeneralUnique ID : 305424797965589410685936007288631159217 (0xE5C6AD2999ECF833B3676C8421DD69B1)Complete name : ./Long.Live.the.Royals.S00E00.Pilot.1080p.WEB-DL.mkvFormat : MatroskaFormat version : Version 4 / Version 2File size : 357 MiBDuration : 9 min 0 sOverall bit rate : 5 543 kb/sMovie name : Да здравствует Королевская семья s00e00Encoded date : UTC 2017-06-21 16:58:42Writing application : mkvmerge v12.0.0 ('Trust / Lust') 64bitWriting library : libebml v1.3.4 + libmatroska v1.4.5

VideoID : 1Format : AVCFormat/Info : Advanced Video CodecFormat profile : High@L4Format settings, CABAC : YesFormat settings, ReFrames : 4 framesCodec ID : V_MPEG4/ISO/AVCDuration : 8 min 45 sBit rate : 5 166 kb/sWidth : 1 916 pixelsHeight : 1 076 pixelsDisplay aspect ratio : 16:9Frame rate mode : ConstantFrame rate : 23.976 (24000/1001) FPSColor space : YUVChroma subsampling : 4:2:0Bit depth : 8 bitsScan type : ProgressiveBits/(Pixel*Frame) : 0.105Stream size : 323 MiB (91%)Language : EnglishDefault : YesForced : NoColor range : LimitedColor primaries : BT.709Transfer characteristics : BT.709Matrix coefficients : BT.709

Audio #1ID : 2Format : MPEG AudioFormat version : Version 1Format profile : Layer 3Mode : Joint stereoMode extension : MS StereoCodec ID : A_MPEG/L3Codec ID/Hint : MP3Duration : 8 min 45 sBit rate mode : ConstantBit rate : 256 kb/sChannel(s) : 2 channelsSampling rate : 48.0 kHzFrame rate : 41.667 FPS (1152 spf)Compression mode : LossyStream size : 16.0 MiB (4%)Title : RUS (Eugene Greene)Writing library : LAME3.99rEncoding settings : -m j -V 4 -q 5 -lowpass 19.7Language : RussianDefault : YesForced : No

Audio #2ID : 3Format : AACFormat/Info : Advanced Audio CodecFormat profile : LCCodec ID : A_AACDuration : 9 min 0 sBit rate : 147 kb/sChannel(s) : 2 channelsChannel positions : Front: L RSampling rate : 44.1 kHzFrame rate : 43.066 FPS (1024 spf)Compression mode : LossyStream size : 9.48 MiB (3%)Title : RUS (СаунДаБ) 18+Language : RussianDefault : NoForced : No

Audio #3ID : 4Format : AACFormat/Info : Advanced Audio CodecFormat profile : LCCodec ID : A_AACDuration : 8 min 45 sBit rate : 124 kb/sChannel(s) : 2 channelsChannel positions : Front: L RSampling rate : 48.0 kHzFrame rate : 46.875 FPS (1024 spf)Compression mode : LossyStream size : 7.77 MiB (2%)Title : ENGLanguage : EnglishDefault : NoForced : No

Text #1ID : 5Format : UTF-8Codec ID : S_TEXT/UTF8Codec ID/Info : UTF-8 Plain TextDuration : 8 min 11 sBit rate : 274 b/sCount of elements : 304Stream size : 16.5 KiB (0%)Language : EnglishDefault : NoForced : No

Text #2ID : 6Format : UTF-8Codec ID : S_TEXT/UTF8Codec ID/Info : UTF-8 Plain TextDuration : 8 min 11 sBit rate : 444 b/sCount of elements : 304Stream size : 26.7 KiB (0%)Language : RussianDefault : NoForced : No

GeneralUnique ID : 181841743787669313917711199635238853014 (0x88CD7229C7EB049531D46A0556A09996)Complete name : ./Long.Live.the.Royals.S01E03.Snore.Much.1080p.WEB-DL.mkvFormat : MatroskaFormat version : Version 4 / Version 2File size : 454 MiBDuration : 11 min 24 sOverall bit rate : 5 564 kb/sMovie name : Да здравствует Королевская семья s01e03Encoded date : UTC 2017-06-21 17:02:02Writing application : mkvmerge v12.0.0 ('Trust / Lust') 64bitWriting library : libebml v1.3.4 + libmatroska v1.4.5

VideoID : 1Format : AVCFormat/Info : Advanced Video CodecFormat profile : High@L4Format settings, CABAC : YesFormat settings, ReFrames : 4 framesCodec ID : V_MPEG4/ISO/AVCDuration : 11 min 24 sBit rate : 5 165 kb/sWidth : 1 920 pixelsHeight : 1 080 pixelsDisplay aspect ratio : 16:9Frame rate mode : ConstantFrame rate : 23.976 (24000/1001) FPSColor space : YUVChroma subsampling : 4:2:0Bit depth : 8 bitsScan type : ProgressiveBits/(Pixel*Frame) : 0.104Stream size : 421 MiB (93%)Language : EnglishDefault : YesForced : NoColor range : LimitedColor primaries : BT.709Transfer characteristics : BT.709Matrix coefficients : BT.709

Audio #1ID : 2Format : AACFormat/Info : Advanced Audio CodecFormat profile : LCCodec ID : A_AACDuration : 11 min 2 sBit rate : 128 kb/sChannel(s) : 2 channelsChannel positions : Front: L RSampling rate : 48.0 kHzFrame rate : 46.875 FPS (1024 spf)Compression mode : LossyStream size : 10.1 MiB (2%)Title : RUS (RedRussian1337)Language : RussianDefault : YesForced : No

Audio #2ID : 3Format : AACFormat/Info : Advanced Audio CodecFormat profile : LCCodec ID : A_AACDuration : 11 min 24 sBit rate : 151 kb/sChannel(s) : 2 channelsChannel positions : Front: L RSampling rate : 44.1 kHzFrame rate : 43.066 FPS (1024 spf)Compression mode : LossyStream size : 12.3 MiB (3%)Title : RUS (СунДаБ)Language : RussianDefault : NoForced : No

Audio #3ID : 4Format : AACFormat/Info : Advanced Audio CodecFormat profile : LCCodec ID : A_AACDuration : 11 min 24 sBit rate : 125 kb/sChannel(s) : 2 channelsChannel positions : Front: L RSampling rate : 48.0 kHzFrame rate : 46.875 FPS (1024 spf)Compression mode : LossyStream size : 10.2 MiB (2%)Title : ENGLanguage : EnglishDefault : NoForced : No

TextID : 5Format : UTF-8Codec ID : S_TEXT/UTF8Codec ID/Info : UTF-8 Plain TextDuration : 11 min 14 sBit rate : 154 b/sCount of elements : 323Stream size : 12.7 KiB (0%)Language : EnglishDefault : NoForced : No


Трекер:  [ 21-Июн-2017 20:24 ]

  

Скачать .torrent

Размер .torrent файла 85 KB


Размер: 2.11 GB
Хэш (hash) релиза: 10ef41dfbcf7db1dd9372d04722918422948d0c4
Подписка на обновления:

Еще никто не оставлял запись к записи скачать торрент Да здравствует Королевская семья Long Live the Royals . Будь первым!

!Обратная связь