Скачать через торрент музыку Последний герой Survivor Vanuatu бесплатно без регистрации torrent

Если у вас наблюдаются проблемы со скриншотами, переходом по ссылками, скачиванием торрентов - проблемы в блокировщике рекламы AdBlock. #хорошегоДня!


Статистика раздачи
Размер:  174 MB   |    Зарегистрирован:  2 месяца 28 дней   |    .torrent скачан:  13 раз   |   
Раздают:  1  
   
Загрузка...
 
Автор Сообщение

Galfimbul

avatar Galfimbul


Последний герой Вануату / Survivor Vanuatu (Islands of Fire)

Жанр: Score
Композитор: Russ Landau
Год выпуска диска: 2004

Аудиокодек: FLAC (*.flac)
Тип рипа: tracks
Битрейт аудио: lossless

Продолжительность: 0:33:18

Источник:what.cd
Наличие сканов в содержимом раздачи: нет

Треклист:
01. Big Adventure
02. Dark Magic
03. Ancient Voices Vanuatu (Survivor 9)
04. Vanuatu Overture Full
05. Hebron's Journey
06. Djem Dang Bongos
07. Cannibals
08. Big Bad Spirits
09. Passage of Time
10. Headhunters
11. Vanuatu Flute
12. Dark Passage
13. Vanuatu Tasking
14. Voodoo March
15. Strenuous Strategy
16. Rituality
17. Voodoo Eerie
18. Heroic Challenge
19. Warriors
20. Vanuatu Overture Strum
21. Give Peace Another Chance
Exact Audio Copy V1.1 from 23. June 2015

EAC extraction logfile from 28. May 2016, 10:57

Russ Landau / Survivor: Vanuatu (Islands of Fire)

Used drive : ASUS DRW-24B1ST c Adapter: 1 ID: 0

Read mode : SecureUtilize accurate stream : YesDefeat audio cache : YesMake use of C2 pointers : No

Read offset correction : 6Overread into Lead-In and Lead-Out : NoFill up missing offset samples with silence : YesDelete leading and trailing silent blocks : NoNull samples used in CRC calculations : YesUsed interface : Native Win32 interface for Win NT & 2000Gap handling : Appended to previous track

Used output format : User Defined EncoderSelected bitrate : 128 kBit/sQuality : HighAdd ID3 tag : NoCommand line compressor : D:\Dropbox\Applications\Exact Audio Copy\flac.exeAdditional command line options : -8 -e -V -T "ARTIST=%artist%" -T "TITLE=%title%" -T "ALBUM=%albumtitle%" -T "DATE=%year%" -T "TRACKNUMBER=%tracknr%" -T "GENRE=%genre%" -T "PERFORMER=%albuminterpret%" -T "COMPOSER=%composer%" %haslyrics%--tag-from-file=LYRICS="%lyricsfile%"%haslyrics% -T "ALBUMARTIST=%albumartist%" -T "DISCNUMBER=%cdnumber%" -T "TOTALDISCS=%totalcds%" -T "TOTALTRACKS=%numtracks%" -T "COMMENT=%comment%" %source% -o %dest%

TOC of the extracted CD

Track | Start | Length | Start sector | End sector --------------------------------------------------------- 1 | 0:00.00 | 1:27.50 | 0 | 6574 2 | 1:27.50 | 1:31.65 | 6575 | 13464 3 | 2:59.40 | 2:20.27 | 13465 | 23991 4 | 5:19.67 | 1:53.14 | 23992 | 32480 5 | 7:13.06 | 1:32.51 | 32481 | 39431 6 | 8:45.57 | 1:16.65 | 39432 | 45196 7 | 10:02.47 | 1:55.24 | 45197 | 53845 8 | 11:57.71 | 1:40.17 | 53846 | 61362 9 | 13:38.13 | 1:31.45 | 61363 | 68232 10 | 15:09.58 | 1:31.39 | 68233 | 75096 11 | 16:41.22 | 1:08.59 | 75097 | 80255 12 | 17:50.06 | 1:16.63 | 80256 | 86018 13 | 19:06.69 | 1:52.68 | 86019 | 94486 14 | 20:59.62 | 1:07.54 | 94487 | 99565 15 | 22:07.41 | 1:28.00 | 99566 | 106165 16 | 23:35.41 | 1:31.74 | 106166 | 113064 17 | 25:07.40 | 1:44.74 | 113065 | 120938 18 | 26:52.39 | 1:22.35 | 120939 | 127123 19 | 28:14.74 | 1:34.30 | 127124 | 134203 20 | 29:49.29 | 1:00.15 | 134204 | 138718 21 | 30:49.44 | 2:28.45 | 138719 | 149863

Track 1

Filename D:\Uploads\Russ Landau - 2004 - Survivor Vanuatu (Islands of Fire) [FLAC]\01 - Big Adventure.wav

Pre-gap length 0:00:02.00

Peak level 100.0 % Extraction speed 4.2 X Track quality 100.0 % Test CRC 9A107456 Copy CRC 9A107456 Track not present in AccurateRip database Copy OK

Track 2

Filename D:\Uploads\Russ Landau - 2004 - Survivor Vanuatu (Islands of Fire) [FLAC]\02 - Dark Magic.wav

Peak level 94.1 % Extraction speed 4.6 X Track quality 100.0 % Test CRC F5C2260E Copy CRC F5C2260E Track not present in AccurateRip database Copy OK

Track 3

Filename D:\Uploads\Russ Landau - 2004 - Survivor Vanuatu (Islands of Fire) [FLAC]\03 - Ancient Voices Vanuatu (Survivor 9).wav

Peak level 100.0 % Extraction speed 5.3 X Track quality 100.0 % Test CRC 95EBEA69 Copy CRC 95EBEA69 Track not present in AccurateRip database Copy OK

Track 4

Filename D:\Uploads\Russ Landau - 2004 - Survivor Vanuatu (Islands of Fire) [FLAC]\04 - Vanuatu Overture Full.wav

Peak level 95.4 % Extraction speed 3.8 X Track quality 99.9 % Test CRC C2A2BC41 Copy CRC C2A2BC41 Track not present in AccurateRip database Copy OK

Track 5

Filename D:\Uploads\Russ Landau - 2004 - Survivor Vanuatu (Islands of Fire) [FLAC]\05 - Hebron's Journey.wav

Peak level 95.8 % Extraction speed 5.2 X Track quality 100.0 % Test CRC 9A08C1A6 Copy CRC 9A08C1A6 Track not present in AccurateRip database Copy OK

Track 6

Filename D:\Uploads\Russ Landau - 2004 - Survivor Vanuatu (Islands of Fire) [FLAC]\06 - Djem Dang Bongos.wav

Peak level 93.5 % Extraction speed 5.0 X Track quality 100.0 % Test CRC 150CB827 Copy CRC 150CB827 Track not present in AccurateRip database Copy OK

Track 7

Filename D:\Uploads\Russ Landau - 2004 - Survivor Vanuatu (Islands of Fire) [FLAC]\07 - Cannibals.wav

Peak level 100.0 % Extraction speed 5.7 X Track quality 100.0 % Test CRC CAE1F644 Copy CRC CAE1F644 Track not present in AccurateRip database Copy OK

Track 8

Filename D:\Uploads\Russ Landau - 2004 - Survivor Vanuatu (Islands of Fire) [FLAC]\08 - Big Bad Spirits.wav

Peak level 100.0 % Extraction speed 3.9 X Track quality 99.8 % Test CRC CAD2E04F Copy CRC CAD2E04F Track not present in AccurateRip database Copy OK

Track 9

Filename D:\Uploads\Russ Landau - 2004 - Survivor Vanuatu (Islands of Fire) [FLAC]\09 - Passage of Time.wav

Peak level 100.0 % Extraction speed 3.9 X Track quality 99.8 % Test CRC 236CFBC6 Copy CRC 236CFBC6 Track not present in AccurateRip database Copy OK

Track 10

Filename D:\Uploads\Russ Landau - 2004 - Survivor Vanuatu (Islands of Fire) [FLAC]\10 - Headhunters.wav

Peak level 100.0 % Extraction speed 5.8 X Track quality 100.0 % Test CRC 49F85412 Copy CRC 49F85412 Track not present in AccurateRip database Copy OK

Track 11

Filename D:\Uploads\Russ Landau - 2004 - Survivor Vanuatu (Islands of Fire) [FLAC]\11 - Vanuatu Flute.wav

Peak level 100.0 % Extraction speed 5.4 X Track quality 100.0 % Test CRC 328BCE07 Copy CRC 328BCE07 Track not present in AccurateRip database Copy OK

Track 12

Filename D:\Uploads\Russ Landau - 2004 - Survivor Vanuatu (Islands of Fire) [FLAC]\12 - Dark Passage.wav

Peak level 100.0 % Extraction speed 5.6 X Track quality 100.0 % Test CRC 21F3B9AB Copy CRC 21F3B9AB Track not present in AccurateRip database Copy OK

Track 13

Filename D:\Uploads\Russ Landau - 2004 - Survivor Vanuatu (Islands of Fire) [FLAC]\13 - Vanuatu Tasking.wav

Peak level 100.0 % Extraction speed 6.5 X Track quality 100.0 % Test CRC 0BC2B6EF Copy CRC 0BC2B6EF Track not present in AccurateRip database Copy OK

Track 14

Filename D:\Uploads\Russ Landau - 2004 - Survivor Vanuatu (Islands of Fire) [FLAC]\14 - Voodoo March.wav

Peak level 95.4 % Extraction speed 3.6 X Track quality 99.8 % Test CRC 08B5E2BA Copy CRC 08B5E2BA Track not present in AccurateRip database Copy OK

Track 15

Filename D:\Uploads\Russ Landau - 2004 - Survivor Vanuatu (Islands of Fire) [FLAC]\15 - Strenuous Strategy.wav

Peak level 100.0 % Extraction speed 6.1 X Track quality 100.0 % Test CRC 1594962E Copy CRC 1594962E Track not present in AccurateRip database Copy OK

Track 16

Filename D:\Uploads\Russ Landau - 2004 - Survivor Vanuatu (Islands of Fire) [FLAC]\16 - Rituality.wav

Peak level 100.0 % Extraction speed 4.4 X Track quality 99.8 % Test CRC C0F6DC54 Copy CRC C0F6DC54 Track not present in AccurateRip database Copy OK

Track 17

Filename D:\Uploads\Russ Landau - 2004 - Survivor Vanuatu (Islands of Fire) [FLAC]\17 - Voodoo Eerie.wav

Peak level 100.0 % Extraction speed 6.9 X Track quality 100.0 % Test CRC 278B28C4 Copy CRC 278B28C4 Track not present in AccurateRip database Copy OK

Track 18

Filename D:\Uploads\Russ Landau - 2004 - Survivor Vanuatu (Islands of Fire) [FLAC]\18 - Heroic Challenge.wav

Peak level 100.0 % Extraction speed 6.4 X Track quality 100.0 % Test CRC 06173135 Copy CRC 06173135 Track not present in AccurateRip database Copy OK

Track 19

Filename D:\Uploads\Russ Landau - 2004 - Survivor Vanuatu (Islands of Fire) [FLAC]\19 - Warriors.wav

Peak level 100.0 % Extraction speed 6.7 X Track quality 100.0 % Test CRC BC1BEA71 Copy CRC BC1BEA71 Track not present in AccurateRip database Copy OK

Track 20

Filename D:\Uploads\Russ Landau - 2004 - Survivor Vanuatu (Islands of Fire) [FLAC]\20 - Vanuatu Overture Strum.wav

Peak level 99.9 % Extraction speed 5.9 X Track quality 100.0 % Test CRC 630BBEA0 Copy CRC 630BBEA0 Track not present in AccurateRip database Copy OK

Track 21

Filename D:\Uploads\Russ Landau - 2004 - Survivor Vanuatu (Islands of Fire) [FLAC]\21 - Give Peace Another Chance.wav

Peak level 72.3 % Extraction speed 7.7 X Track quality 100.0 % Test CRC 0A9C6529 Copy CRC 0A9C6529 Track not present in AccurateRip database Copy OK

None of the tracks are present in the AccurateRip database

No errors occurred

End of status report

---- CUETools DB Plugin V2.1.6

[CTDB TOCID: ynTRu_SyIZMMlu5TWWrr.161K1Y-] disk not present in databaseSubmit result: ynTRu_SyIZMMlu5TWWrr.161K1Y- has been uploaded

==== Log checksum 006C65F3D4AC7E1D901988B2979679BE8DDC518E6BBF58A345C5818EA8979124 ====
REM DATE 2004REM DISCID 0207CE15REM COMMENT "ExactAudioCopy v1.1"PERFORMER "Russ Landau"TITLE "Survivor: Vanuatu (Islands of Fire)"FILE "01 - Big Adventure.wav" WAVE TRACK 01 AUDIO TITLE "Big Adventure" PERFORMER "Russ Landau" INDEX 01 00:00:00FILE "02 - Dark Magic.wav" WAVE TRACK 02 AUDIO TITLE "Dark Magic" PERFORMER "Russ Landau" INDEX 01 00:00:00FILE "03 - Ancient Voices Vanuatu (Survivor 9).wav" WAVE TRACK 03 AUDIO TITLE "Ancient Voices Vanuatu (Survivor 9)" PERFORMER "Russ Landau" INDEX 01 00:00:00FILE "04 - Vanuatu Overture Full.wav" WAVE TRACK 04 AUDIO TITLE "Vanuatu Overture Full" PERFORMER "Russ Landau" INDEX 01 00:00:00FILE "05 - Hebron's Journey.wav" WAVE TRACK 05 AUDIO TITLE "Hebron's Journey" PERFORMER "Russ Landau" INDEX 01 00:00:00FILE "06 - Djem Dang Bongos.wav" WAVE TRACK 06 AUDIO TITLE "Djem Dang Bongos" PERFORMER "Russ Landau" INDEX 01 00:00:00FILE "07 - Cannibals.wav" WAVE TRACK 07 AUDIO TITLE "Cannibals" PERFORMER "Russ Landau" INDEX 01 00:00:00FILE "08 - Big Bad Spirits.wav" WAVE TRACK 08 AUDIO TITLE "Big Bad Spirits" PERFORMER "Russ Landau" INDEX 01 00:00:00FILE "09 - Passage of Time.wav" WAVE TRACK 09 AUDIO TITLE "Passage of Time" PERFORMER "Russ Landau" INDEX 01 00:00:00FILE "10 - Headhunters.wav" WAVE TRACK 10 AUDIO TITLE "Headhunters" PERFORMER "Russ Landau" INDEX 01 00:00:00FILE "11 - Vanuatu Flute.wav" WAVE TRACK 11 AUDIO TITLE "Vanuatu Flute" PERFORMER "Russ Landau" INDEX 01 00:00:00FILE "12 - Dark Passage.wav" WAVE TRACK 12 AUDIO TITLE "Dark Passage" PERFORMER "Russ Landau" INDEX 01 00:00:00FILE "13 - Vanuatu Tasking.wav" WAVE TRACK 13 AUDIO TITLE "Vanuatu Tasking" PERFORMER "Russ Landau" INDEX 01 00:00:00FILE "14 - Voodoo March.wav" WAVE TRACK 14 AUDIO TITLE "Voodoo March" PERFORMER "Russ Landau" INDEX 01 00:00:00FILE "15 - Strenuous Strategy.wav" WAVE TRACK 15 AUDIO TITLE "Strenuous Strategy" PERFORMER "Russ Landau" INDEX 01 00:00:00FILE "16 - Rituality.wav" WAVE TRACK 16 AUDIO TITLE "Rituality" PERFORMER "Russ Landau" INDEX 01 00:00:00FILE "17 - Voodoo Eerie.wav" WAVE TRACK 17 AUDIO TITLE "Voodoo Eerie" PERFORMER "Russ Landau" INDEX 01 00:00:00FILE "18 - Heroic Challenge.wav" WAVE TRACK 18 AUDIO TITLE "Heroic Challenge" PERFORMER "Russ Landau" INDEX 01 00:00:00FILE "19 - Warriors.wav" WAVE TRACK 19 AUDIO TITLE "Warriors" PERFORMER "Russ Landau" INDEX 01 00:00:00FILE "20 - Vanuatu Overture Strum.wav" WAVE TRACK 20 AUDIO TITLE "Vanuatu Overture Strum" PERFORMER "Russ Landau" INDEX 01 00:00:00FILE "21 - Give Peace Another Chance.wav" WAVE TRACK 21 AUDIO TITLE "Give Peace Another Chance" PERFORMER "Russ Landau" INDEX 01 00:00:00


Трекер:  [ 20-Июн-2017 22:06 ]

  

Скачать .torrent

Размер .torrent файла 15 KB


Размер: 174 MB
Хэш (hash) релиза: 63443b834e2c28f26bee3c7a0f9056e793321a5d

Еще никто не оставлял запись к записи скачать торрент Последний герой Survivor Vanuatu . Будь первым!

!Обратная связь