Скачать через торрент Ограбление в Хаттон Гарден The Hatton Garden Job Фильм бесплатно в хорошем качестве torrent

Скачивайте на UnionPeer.org фильмы через торрент без регистрации. Новинки кино в хорошем качестве через торрент. На UnionPeer.org можно скачать через торрент фильмы 2014 и 2015 годов. Самые новые фильмы.

Скачать торрент Ограбление в Хаттон Гарден The Hatton Garden Job бесплатно через .torrent фильм мультфильм сериал

Если у вас наблюдаются проблемы со скриншотами, переходом по ссылками, скачиванием торрентов - проблемы в блокировщике рекламы AdBlock. #хорошегоДня!


Статистика раздачи
Размер:  6.66 GB   |    Зарегистрирован:  5 месяцев 23 дня   |    .torrent скачан:  156 раз   |   
Раздают:  1  
   
Загрузка...
 
Автор Сообщение

Galfimbul

avatar Galfimbul


Название: Ограбление в Хаттон Гарден
Оригинальное название: The Hatton Garden Job
Год выхода: 2017
Жанр: криминал
Режиссер: Ронни Томпсон
В ролях: Мэттью Гуд, Джоэли Ричардсон, Стивен Мойер, Клайв Расселл, Фил Дэниелс, Ларри Ламб, Дэвид Колдер, Марк Купер Харрис, Джек Дулан, Дэниэл Иган

О фильме:
В апреле 2015 подземное хранилище ценностей в Лондонском Хаттен Гарден было ограблено четырьмя пожилыми мужчинами. Общая сумма награбленного составила порядка 200 миллионов фунтов, что называют крупнейшим ограблением в английской истории.



Выпущено: Великобритания / Fiction Films
Продолжительность: 01:33:33
Озвучивание: Любительское (многоголосое) ["Синема УС"]

ПРИМЕЧАНИЕ: ПРИСУТСТВУЕТ РЕКЛАМА!

Файл
Качество:BDRip 1080p
Формат:mkv
Видео:AVC, 1920x1040 (1.85:1), 9538 kbps (0.199 b/px), 23.976 fps
Аудио :AC3, 448 kbps (CBR), 48.0 KHz (16 bits), 2 ch, Russian
General
Unique ID : 222244709512737094379180143380771704786 (0xA732C62BA0F79104B34E5B2B9C550FD2)
Complete name : E:фильмыThe.hatton.garden.job.2017.P.BDRip.1O8Op_KOSHARA.mkv
Format : Matroska
Format version : Version 2
File size : 6.66 GiB
Duration : 1h 33mn
Overall bit rate mode : Variable
Overall bit rate : 10.2 Mbps
Encoded date : UTC 2017-06-17 18:37:07
Writing application : mkvmerge v8.3.0 ('Over the Horizon') 64bit
Writing library : libebml v1.3.1 + libmatroska v1.4.2
DURATION : 01:33:33.274000000
NUMBER_OF_FRAMES : 134584
NUMBER_OF_BYTES : 6833003148
_STATISTICS_WRITING_APP : mkvmerge v8.3.0 ('Over the Horizon') 64bit
_STATISTICS_WRITING_DATE_UTC : 2017-06-17 18:37:07
_STATISTICS_TAGS : BPS DURATION NUMBER_OF_FRAMES NUMBER_OF_BYTES

Video
ID : 1
Format : AVC
Format/Info : Advanced Video Codec
Format profile : High@L4.1
Format settings, CABAC : Yes
Format settings, ReFrames : 4 frames
Codec ID : V_MPEG4/ISO/AVC
Duration : 1h 33mn
Bit rate mode : Variable
Bit rate : 9 538 Kbps
Maximum bit rate : 11.0 Mbps
Width : 1 920 pixels
Height : 1 040 pixels
Display aspect ratio : 1.85:1
Frame rate mode : Constant
Frame rate : 23.976 fps
Standard : Component
Color space : YUV
Chroma subsampling : 4:2:0
Bit depth : 8 bits
Scan type : Progressive
Bits/(Pixel*Frame) : 0.199
Stream size : 6.23 GiB (94%)
Default : Yes
Forced : No
Color primaries : BT.709
Transfer characteristics : BT.709
Matrix coefficients : BT.709

Audio
ID : 2
Format : AC-3
Format/Info : Audio Coding 3
Mode extension : CM (complete main)
Format settings, Endianness : Big
Codec ID : A_AC3
Duration : 1h 33mn
Bit rate mode : Constant
Bit rate : 448 Kbps
Channel(s) : 2 channels
Channel positions : Front: L R
Sampling rate : 48.0 KHz
Bit depth : 16 bits
Compression mode : Lossy
Stream size : 300 MiB (4%)
Default : Yes
Forced : No


Трекер:  [ 18-Июн-2017 20:20 ]

  

Скачать .torrent

Размер .torrent файла 17 KB


Размер: 6.66 GB
Хэш (hash) релиза: 904209eac1bcd8508740ffe002ff381c2a7b4316
Подписка на обновления:

Торренты, похожие на Ограбление в Хаттон Гарден The Hatton Garden Job скачать торрент

Форум Название Автор Размер S L Добавлен
Зарубежные фильмы 2016-2017 (Новинки зарубежного кино) ·· Ограбление в Хаттон Гарден / The Hatton Garden Job (Ронни Томпсон) [2017, криминал, HDRip] Galfimbul 14680023041.37 GB 2 0 1497769813

10:10

18-Июн-17

Еще никто не оставлял запись к записи скачать торрент Ограбление в Хаттон Гарден The Hatton Garden Job . Будь первым!

!Обратная связь